  0
SECTION
  2
HEADER
  9
$ACADVER
  1
AC1015
  9
$ACADMAINTVER
 70
     6
  9
$DWGCODEPAGE
  3
ANSI_1252
  9
$INSBASE
 10
0.0
 20
0.0
 30
0.0
  9
$EXTMIN
 10
9.99999999999998
 20
9.99999999999995
 30
0.0
  9
$EXTMAX
 10
287.0
 20
210.0
 30
0.0
  9
$LIMMIN
 10
0.0
 20
0.0
  9
$LIMMAX
 10
12.0
 20
9.0
  9
$ORTHOMODE
 70
     0
  9
$REGENMODE
 70
     1
  9
$FILLMODE
 70
     1
  9
$QTEXTMODE
 70
     0
  9
$MIRRTEXT
 70
     1
  9
$LTSCALE
 40
1.0
  9
$ATTMODE
 70
     1
  9
$TEXTSIZE
 40
0.2
  9
$TRACEWID
 40
0.05
  9
$TEXTSTYLE
  7
Standard
  9
$CLAYER
  8
0
  9
$CELTYPE
  6
ByLayer
  9
$CECOLOR
 62
   256
  9
$CELTSCALE
 40
1.0
  9
$DISPSILH
 70
     0
  9
$DIMSCALE
 40
1.0
  9
$DIMASZ
 40
0.18
  9
$DIMEXO
 40
0.0625
  9
$DIMDLI
 40
0.38
  9
$DIMRND
 40
0.0
  9
$DIMDLE
 40
0.0
  9
$DIMEXE
 40
0.18
  9
$DIMTP
 40
0.0
  9
$DIMTM
 40
0.0
  9
$DIMTXT
 40
0.18
  9
$DIMCEN
 40
0.09
  9
$DIMTSZ
 40
0.0
  9
$DIMTOL
 70
     0
  9
$DIMLIM
 70
     0
  9
$DIMTIH
 70
     1
  9
$DIMTOH
 70
     1
  9
$DIMSE1
 70
     0
  9
$DIMSE2
 70
     0
  9
$DIMTAD
 70
     0
  9
$DIMZIN
 70
     0
  9
$DIMBLK
  1

  9
$DIMASO
 70
     1
  9
$DIMSHO
 70
     1
  9
$DIMPOST
  1

  9
$DIMAPOST
  1

  9
$DIMALT
 70
     0
  9
$DIMALTD
 70
     2
  9
$DIMALTF
 40
25.4
  9
$DIMLFAC
 40
1.0
  9
$DIMTOFL
 70
     0
  9
$DIMTVP
 40
0.0
  9
$DIMTIX
 70
     0
  9
$DIMSOXD
 70
     0
  9
$DIMSAH
 70
     0
  9
$DIMBLK1
  1

  9
$DIMBLK2
  1

  9
$DIMSTYLE
  2
Standard
  9
$DIMCLRD
 70
     0
  9
$DIMCLRE
 70
     0
  9
$DIMCLRT
 70
     0
  9
$DIMTFAC
 40
1.0
  9
$DIMGAP
 40
0.09
  9
$DIMJUST
 70
     0
  9
$DIMSD1
 70
     0
  9
$DIMSD2
 70
     0
  9
$DIMTOLJ
 70
     1
  9
$DIMTZIN
 70
     0
  9
$DIMALTZ
 70
     0
  9
$DIMALTTZ
 70
     0
  9
$DIMUPT
 70
     0
  9
$DIMDEC
 70
     4
  9
$DIMTDEC
 70
     4
  9
$DIMALTU
 70
     2
  9
$DIMALTTD
 70
     2
  9
$DIMTXSTY
  7
Standard
  9
$DIMAUNIT
 70
     0
  9
$DIMADEC
 70
     0
  9
$DIMALTRND
 40
0.0
  9
$DIMAZIN
 70
     0
  9
$DIMDSEP
 70
    46
  9
$DIMATFIT
 70
     3
  9
$DIMFRAC
 70
     0
  9
$DIMLDRBLK
  1

  9
$DIMLUNIT
 70
     2
  9
$DIMLWD
 70
    -2
  9
$DIMLWE
 70
    -2
  9
$DIMTMOVE
 70
     0
  9
$LUNITS
 70
     2
  9
$LUPREC
 70
     4
  9
$SKETCHINC
 40
0.1
  9
$FILLETRAD
 40
0.5
  9
$AUNITS
 70
     0
  9
$AUPREC
 70
     0
  9
$MENU
  1
.
  9
$ELEVATION
 40
0.0
  9
$PELEVATION
 40
0.0
  9
$THICKNESS
 40
0.0
  9
$LIMCHECK
 70
     0
  9
$CHAMFERA
 40
0.5
  9
$CHAMFERB
 40
0.5
  9
$CHAMFERC
 40
1.0
  9
$CHAMFERD
 40
0.0
  9
$SKPOLY
 70
     0
  9
$TDCREATE
 40
2456279.59036059
  9
$TDUCREATE
 40
2456279.548693924
  9
$TDUPDATE
 40
2456279.590360602
  9
$TDUUPDATE
 40
2456279.548693935
  9
$TDINDWG
 40
0.0000000116
  9
$TDUSRTIMER
 40
0.0000000116
  9
$USRTIMER
 70
     1
  9
$ANGBASE
 50
0.0
  9
$ANGDIR
 70
     0
  9
$PDMODE
 70
     0
  9
$PDSIZE
 40
0.0
  9
$PLINEWID
 40
0.0
  9
$SPLFRAME
 70
     0
  9
$SPLINETYPE
 70
     6
  9
$SPLINESEGS
 70
     8
  9
$HANDSEED
  5
30C
  9
$SURFTAB1
 70
     6
  9
$SURFTAB2
 70
     6
  9
$SURFTYPE
 70
     6
  9
$SURFU
 70
     6
  9
$SURFV
 70
     6
  9
$UCSBASE
  2

  9
$UCSNAME
  2

  9
$UCSORG
 10
0.0
 20
0.0
 30
0.0
  9
$UCSXDIR
 10
1.0
 20
0.0
 30
0.0
  9
$UCSYDIR
 10
0.0
 20
1.0
 30
0.0
  9
$UCSORTHOREF
  2

  9
$UCSORTHOVIEW
 70
     0
  9
$UCSORGTOP
 10
0.0
 20
0.0
 30
0.0
  9
$UCSORGBOTTOM
 10
0.0
 20
0.0
 30
0.0
  9
$UCSORGLEFT
 10
0.0
 20
0.0
 30
0.0
  9
$UCSORGRIGHT
 10
0.0
 20
0.0
 30
0.0
  9
$UCSORGFRONT
 10
0.0
 20
0.0
 30
0.0
  9
$UCSORGBACK
 10
0.0
 20
0.0
 30
0.0
  9
$PUCSBASE
  2

  9
$PUCSNAME
  2

  9
$PUCSORG
 10
0.0
 20
0.0
 30
0.0
  9
$PUCSXDIR
 10
1.0
 20
0.0
 30
0.0
  9
$PUCSYDIR
 10
0.0
 20
1.0
 30
0.0
  9
$PUCSORTHOREF
  2

  9
$PUCSORTHOVIEW
 70
     0
  9
$PUCSORGTOP
 10
0.0
 20
0.0
 30
0.0
  9
$PUCSORGBOTTOM
 10
0.0
 20
0.0
 30
0.0
  9
$PUCSORGLEFT
 10
0.0
 20
0.0
 30
0.0
  9
$PUCSORGRIGHT
 10
0.0
 20
0.0
 30
0.0
  9
$PUCSORGFRONT
 10
0.0
 20
0.0
 30
0.0
  9
$PUCSORGBACK
 10
0.0
 20
0.0
 30
0.0
  9
$USERI1
 70
     0
  9
$USERI2
 70
     0
  9
$USERI3
 70
     0
  9
$USERI4
 70
     0
  9
$USERI5
 70
     0
  9
$USERR1
 40
18.0
  9
$USERR2
 40
0.0
  9
$USERR3
 40
0.0
  9
$USERR4
 40
0.0
  9
$USERR5
 40
0.0
  9
$WORLDVIEW
 70
     1
  9
$SHADEDGE
 70
     3
  9
$SHADEDIF
 70
    70
  9
$TILEMODE
 70
     1
  9
$MAXACTVP
 70
    64
  9
$PINSBASE
 10
0.0
 20
0.0
 30
0.0
  9
$PLIMCHECK
 70
     0
  9
$PEXTMIN
 10
1.00000000000000E+20
 20
1.00000000000000E+20
 30
1.00000000000000E+20
  9
$PEXTMAX
 10
-1.00000000000000E+20
 20
-1.00000000000000E+20
 30
-1.00000000000000E+20
  9
$PLIMMIN
 10
0.0
 20
0.0
  9
$PLIMMAX
 10
12.0
 20
9.0
  9
$UNITMODE
 70
     0
  9
$VISRETAIN
 70
     1
  9
$PLINEGEN
 70
     0
  9
$PSLTSCALE
 70
     1
  9
$TREEDEPTH
 70
  3020
  9
$CMLSTYLE
  2
Standard
  9
$CMLJUST
 70
     0
  9
$CMLSCALE
 40
1.0
  9
$PROXYGRAPHICS
 70
     1
  9
$MEASUREMENT
 70
     1
  9
$CELWEIGHT
370
    -1
  9
$ENDCAPS
280
     0
  9
$JOINSTYLE
280
     0
  9
$LWDISPLAY
290
     0
  9
$INSUNITS
 70
     1
  9
$HYPERLINKBASE
  1

  9
$STYLESHEET
  1

  9
$XEDIT
290
     1
  9
$CEPSNTYPE
380
     0
  9
$PSTYLEMODE
290
     1
  9
$FINGERPRINTGUID
  2
{E491DEA1-A570-4C8F-950F-367FE20F69A4}
  9
$VERSIONGUID
  2
{FAEB1C32-E019-11D5-929B-00C0DF256EC4}
  9
$EXTNAMES
290
     1
  9
$PSVPSCALE
 40
0.0
  9
$OLESTARTUP
290
     0
  0
ENDSEC
  0
SECTION
  2
CLASSES
  0
CLASS
  1
ACDBDICTIONARYWDFLT
  2
AcDbDictionaryWithDefault
  3
ObjectDBX Classes
 90
        0
280
     0
281
     0
  0
CLASS
  1
VISUALSTYLE
  2
AcDbVisualStyle
  3
ObjectDBX Classes
 90
     4095
280
     0
281
     0
  0
CLASS
  1
MATERIAL
  2
AcDbMaterial
  3
ObjectDBX Classes
 90
     1153
280
     0
281
     0
  0
CLASS
  1
SCALE
  2
AcDbScale
  3
ObjectDBX Classes
 90
     1153
280
     0
281
     0
  0
CLASS
  1

  2
exOdDbCircle
  3

 90
        0
280
     0
281
     1
  0
CLASS
  1

  2
exOdDbSpline
  3

 90
        0
280
     0
281
     1
  0
CLASS
  1

  2
exOdDbPolyline
  3

 90
        0
280
     0
281
     1
  0
CLASS
  1
DICTIONARYVAR
  2
AcDbDictionaryVar
  3
ObjectDBX Classes
 90
        0
280
     0
281
     0
  0
CLASS
  1
ACDBPLACEHOLDER
  2
AcDbPlaceHolder
  3
ObjectDBX Classes
 90
        0
280
     0
281
     0
  0
CLASS
  1
LAYOUT
  2
AcDbLayout
  3
ObjectDBX Classes
 90
        0
280
     0
281
     0
  0
ENDSEC
  0
SECTION
  2
TABLES
  0
TABLE
  2
VPORT
  5
8
330
0
100
AcDbSymbolTable
 70
     1
  0
VPORT
  5
29
330
8
100
AcDbSymbolTableRecord
100
AcDbViewportTableRecord
  2
*Active
 70
     0
 10
0.0
 20
0.0
 11
1.0
 21
1.0
 12
148.5
 22
110.0
 13
0.0
 23
0.0
 14
0.5
 24
0.5
 15
0.5
 25
0.5
 16
0.0
 26
0.0
 36
1.0
 17
0.0
 27
0.0
 37
0.0
 40
220.0000000000001
 41
1.60267857142857
 42
50.0
 43
0.0
 44
0.0
 50
0.0
 51
0.0
 71
     0
 72
   100
 73
     1
 74
     3
 75
     0
 76
     0
 77
     0
 78
     0
281
     0
 65
     1
110
0.0
120
0.0
130
0.0
111
1.0
121
0.0
131
0.0
112
0.0
122
1.0
132
0.0
 79
     0
146
0.0
  0
ENDTAB
  0
TABLE
  2
LTYPE
  5
5
330
0
100
AcDbSymbolTable
 70
     8
  0
LTYPE
  5
14
330
5
100
AcDbSymbolTableRecord
100
AcDbLinetypeTableRecord
  2
ByBlock
 70
     0
  3

 72
    65
 73
     0
 40
0.0
  0
LTYPE
  5
15
330
5
100
AcDbSymbolTableRecord
100
AcDbLinetypeTableRecord
  2
ByLayer
 70
     0
  3

 72
    65
 73
     0
 40
0.0
  0
LTYPE
  5
16
330
5
100
AcDbSymbolTableRecord
100
AcDbLinetypeTableRecord
  2
Continuous
 70
     0
  3
Solid line
 72
    65
 73
     0
 40
0.0
  0
LTYPE
  5
3F
330
5
100
AcDbSymbolTableRecord
100
AcDbLinetypeTableRecord
  2
DASHED
 70
     0
  3
Dashed
 72
    65
 73
     2
 40
15.0
 49
7.0
 74
     0
 49
-8.0
 74
     0
  0
LTYPE
  5
40
330
5
100
AcDbSymbolTableRecord
100
AcDbLinetypeTableRecord
  2
DOTTED
 70
     0
  3
Dotted
 72
    65
 73
     2
 40
1.0
 49
0.0
 74
     0
 49
-1.0
 74
     0
  0
LTYPE
  5
41
330
5
100
AcDbSymbolTableRecord
100
AcDbLinetypeTableRecord
  2
DOT_CENTER
 70
     0
  3
Dot_Center
 72
    65
 73
     4
 40
14.0
 49
12.0
 74
     0
 49
-1.0
 74
     0
 49
0.0
 74
     0
 49
-1.0
 74
     0
  0
LTYPE
  5
42
330
5
100
AcDbSymbolTableRecord
100
AcDbLinetypeTableRecord
  2
LONG_DASHED
 70
     0
  3
Long_Dashed
 72
    65
 73
     2
 40
15.0
 49
10.0
 74
     0
 49
-5.0
 74
     0
  0
LTYPE
  5
43
330
5
100
AcDbSymbolTableRecord
100
AcDbLinetypeTableRecord
  2
DASH_CENTER
 70
     0
  3
Dash_Center
 72
    65
 73
     4
 40
14.0
 49
11.0
 74
     0
 49
-1.0
 74
     0
 49
1.0
 74
     0
 49
-1.0
 74
     0
  0
LTYPE
  5
44
330
5
100
AcDbSymbolTableRecord
100
AcDbLinetypeTableRecord
  2
PHANTOM
 70
     0
  3
Phantom
 72
    65
 73
     6
 40
13.0
 49
10.0
 74
     0
 49
-1.0
 74
     0
 49
0.0
 74
     0
 49
-1.0
 74
     0
 49
0.0
 74
     0
 49
-1.0
 74
     0
  0
LTYPE
  5
45
330
5
100
AcDbSymbolTableRecord
100
AcDbLinetypeTableRecord
  2
CENTER_DASH_DASH
 70
     0
  3
Center_Dash_Dash
 72
    65
 73
     6
 40
14.0
 49
9.0
 74
     0
 49
-1.0
 74
     0
 49
1.0
 74
     0
 49
-1.0
 74
     0
 49
1.0
 74
     0
 49
-1.0
 74
     0
  0
ENDTAB
  0
TABLE
  2
LAYER
  5
2
330
0
100
AcDbSymbolTable
 70
     6
  0
LAYER
  5
10
330
2
100
AcDbSymbolTableRecord
100
AcDbLayerTableRecord
  2
0
 70
     0
 62
     7
  6
Continuous
370
    -3
390
F
  0
LAYER
  5
46
330
2
100
AcDbSymbolTableRecord
100
AcDbLayerTableRecord
  2
Bemaßungen_TC_020513_DIN_
 70
     0
 62
     7
  6
Continuous
370
    -3
390
F
  0
LAYER
  5
47
330
2
100
AcDbSymbolTableRecord
100
AcDbLayerTableRecord
  2
Schraffur
 70
     0
 62
     7
  6
Continuous
370
    -3
390
F
  0
LAYER
  5
48
330
2
100
AcDbSymbolTableRecord
100
AcDbLayerTableRecord
  2
Sichtbare_Kanten_TC_020513_DIN_
 70
     0
 62
     7
  6
Continuous
370
    -3
390
F
  0
LAYER
  5
49
330
2
100
AcDbSymbolTableRecord
100
AcDbLayerTableRecord
  2
Skizziergeometrie_ISO_
 70
     0
 62
     7
  6
Continuous
370
    -3
390
F
  0
LAYER
  5
4A
330
2
100
AcDbSymbolTableRecord
100
AcDbLayerTableRecord
  2
Symbole_ISO_
 70
     0
 62
     7
  6
Continuous
370
    -3
390
F
  0
ENDTAB
  0
TABLE
  2
STYLE
  5
3
330
0
100
AcDbSymbolTable
 70
     5
  0
STYLE
  5
11
330
3
100
AcDbSymbolTableRecord
100
AcDbTextStyleTableRecord
  2
Standard
 70
     0
 40
0.0
 41
1.0
 50
0.0
 71
     0
 42
0.2
  3
txt
  4

  0
STYLE
  5
D3
330
3
100
AcDbSymbolTableRecord
100
AcDbTextStyleTableRecord
  2
CONVERTER_11
 70
     0
 40
0.0
 41
0.59999996423721
 50
0.0
 71
     0
 42
0.2
  3
txt.shx
  4

  0
STYLE
  5
D5
330
3
100
AcDbSymbolTableRecord
100
AcDbTextStyleTableRecord
  2
CONVERTER_12
 70
     0
 40
0.0
 41
0.67499998211861
 50
0.0
 71
     0
 42
0.2
  3
txt.shx
  4

  0
STYLE
  5
2A4
330
3
100
AcDbSymbolTableRecord
100
AcDbTextStyleTableRecord
  2
CONVERTER_13
 70
     0
 40
0.0
 41
0.89999994635582
 50
0.0
 71
     0
 42
0.2
  3
txt.shx
  4

  0
STYLE
  5
2AE
330
3
100
AcDbSymbolTableRecord
100
AcDbTextStyleTableRecord
  2
CONVERTER_14
 70
     0
 40
0.0
 41
0.75
 50
0.0
 71
     0
 42
0.2
  3
txt.shx
  4

  0
ENDTAB
  0
TABLE
  2
VIEW
  5
6
330
0
100
AcDbSymbolTable
 70
     0
  0
ENDTAB
  0
TABLE
  2
UCS
  5
7
330
0
100
AcDbSymbolTable
 70
     0
  0
ENDTAB
  0
TABLE
  2
APPID
  5
9
330
0
100
AcDbSymbolTable
 70
     1
  0
APPID
  5
12
330
9
100
AcDbSymbolTableRecord
100
AcDbRegAppTableRecord
  2
ACAD
 70
     0
  0
ENDTAB
  0
TABLE
  2
DIMSTYLE
  5
A
330
0
100
AcDbSymbolTable
 70
     6
100
AcDbDimStyleTable
  0
DIMSTYLE
105
27
330
A
100
AcDbSymbolTableRecord
100
AcDbDimStyleTableRecord
  2
Standard
 70
     0
340
11
  0
DIMSTYLE
105
2B2
102
{ACAD_REACTORS
330
2B3
102
}
330
A
100
AcDbSymbolTableRecord
100
AcDbDimStyleTableRecord
  2
ME10_DIM_10
 70
     0
 41
2.5
 42
1.0
 44
2.0
 73
     0
 74
     0
 77
     1
 78
    12
140
3.5
147
0.8
172
     1
173
     1
174
     1
175
     1
176
     7
177
     7
178
     7
271
     2
340
2AE
  0
DIMSTYLE
105
2BD
102
{ACAD_REACTORS
330
2BE
102
}
330
A
100
AcDbSymbolTableRecord
100
AcDbDimStyleTableRecord
  2
ME10_DIM_11
 70
     0
 41
2.5
 42
1.0
 44
2.0
 73
     0
 74
     0
 77
     1
 78
    12
140
3.5
147
0.8
172
     1
173
     1
174
     1
175
     1
176
     7
177
     7
178
     7
271
     2
340
2AE
  0
DIMSTYLE
105
2C8
102
{ACAD_REACTORS
330
2C9
102
}
330
A
100
AcDbSymbolTableRecord
100
AcDbDimStyleTableRecord
  2
ME10_DIM_12
 70
     0
 41
2.5
 42
1.0
 44
2.0
 73
     0
 74
     0
 77
     1
 78
    12
140
3.5
147
0.8
172
     1
173
     1
174
     1
175
     1
176
     7
177
     7
178
     7
271
     2
340
2AE
  0
DIMSTYLE
105
2D3
102
{ACAD_REACTORS
330
2D4
102
}
330
A
100
AcDbSymbolTableRecord
100
AcDbDimStyleTableRecord
  2
ME10_DIM_13
 70
     0
 41
2.5
 42
1.0
 44
2.0
 73
     0
 74
     0
 77
     1
 78
    12
140
3.5
147
0.8
172
     1
173
     1
174
     1
175
     1
176
     7
177
     7
178
     7
271
     2
340
2AE
  0
DIMSTYLE
105
2DE
102
{ACAD_REACTORS
330
2DF
102
}
330
A
100
AcDbSymbolTableRecord
100
AcDbDimStyleTableRecord
  2
ME10_DIM_14
 70
     0
 41
2.5
 42
1.0
 44
2.0
 73
     0
 74
     0
 77
     1
 78
    12
140
3.5
147
0.8
172
     1
173
     1
174
     1
175
     1
176
     7
177
     7
178
     7
271
     2
340
2AE
  0
ENDTAB
  0
TABLE
  2
BLOCK_RECORD
  5
1
330
0
100
AcDbSymbolTable
 70
     8
  0
BLOCK_RECORD
  5
1F
330
1
100
AcDbSymbolTableRecord
100
AcDbBlockTableRecord
  2
*Model_Space
340
22
  0
BLOCK_RECORD
  5
1B
330
1
100
AcDbSymbolTableRecord
100
AcDbBlockTableRecord
  2
*Paper_Space
340
1E
  0
BLOCK_RECORD
  5
23
330
1
100
AcDbSymbolTableRecord
100
AcDbBlockTableRecord
  2
*Paper_Space0
340
26
  0
BLOCK_RECORD
  5
4B
330
1
100
AcDbSymbolTableRecord
100
AcDbBlockTableRecord
  2
Schriftfelder_Ilme
340
0
102
{BLKREFS
331
73
102
}
  0
BLOCK_RECORD
  5
4E
330
1
100
AcDbSymbolTableRecord
100
AcDbBlockTableRecord
  2
Ränder_Ilme_Rahmen_A4_quer
340
0
102
{BLKREFS
331
74
102
}
  0
BLOCK_RECORD
  5
2A8
330
1
100
AcDbSymbolTableRecord
100
AcDbBlockTableRecord
  2
*D3
340
0
  0
BLOCK_RECORD
  5
2B4
330
1
100
AcDbSymbolTableRecord
100
AcDbBlockTableRecord
  2
*D4
340
0
  0
BLOCK_RECORD
  5
2BF
330
1
100
AcDbSymbolTableRecord
100
AcDbBlockTableRecord
  2
*D5
340
0
  0
BLOCK_RECORD
  5
2CA
330
1
100
AcDbSymbolTableRecord
100
AcDbBlockTableRecord
  2
*D6
340
0
  0
BLOCK_RECORD
  5
2D5
330
1
100
AcDbSymbolTableRecord
100
AcDbBlockTableRecord
  2
*D7
340
0
  0
ENDTAB
  0
ENDSEC
  0
SECTION
  2
BLOCKS
  0
BLOCK
  5
20
330
1F
100
AcDbEntity
  8
0
100
AcDbBlockBegin
  2
*Model_Space
 70
     0
 10
0.0
 20
0.0
 30
0.0
  3
*Model_Space
  1

  0
ENDBLK
  5
21
330
1F
100
AcDbEntity
  8
0
100
AcDbBlockEnd
  0
BLOCK
  5
1C
330
1B
100
AcDbEntity
 67
     1
  8
0
100
AcDbBlockBegin
  2
*Paper_Space
 70
     0
 10
0.0
 20
0.0
 30
0.0
  3
*Paper_Space
  1

  0
ENDBLK
  5
1D
330
1B
100
AcDbEntity
 67
     1
  8
0
100
AcDbBlockEnd
  0
BLOCK
  5
24
330
23
100
AcDbEntity
  8
0
100
AcDbBlockBegin
  2
*Paper_Space0
 70
     0
 10
0.0
 20
0.0
 30
0.0
  3
*Paper_Space0
  1

  0
ENDBLK
  5
25
330
23
100
AcDbEntity
  8
0
100
AcDbBlockEnd
  0
BLOCK
  5
4C
330
4B
100
AcDbEntity
  8
0
100
AcDbBlockBegin
  2
Schriftfelder_Ilme
 70
     0
 10
0.0
 20
0.0
 30
0.0
  3
Schriftfelder_Ilme
  1

  0
LINE
  5
75
330
4B
100
AcDbEntity
  8
Skizziergeometrie_ISO_
  6
Continuous
 62
     7
100
AcDbLine
 10
19.980189950303
 20
45.0006400926262
 30
0.0
 11
19.980189950303
 21
10.0006400926262
 31
0.0
  0
LINE
  5
76
330
4B
100
AcDbEntity
  8
Skizziergeometrie_ISO_
  6
Continuous
 62
     7
100
AcDbLine
 10
189.655184537377
 20
14.2880685085818
 30
0.0
 11
189.655184537377
 21
19.2535360148728
 31
0.0
  0
LINE
  5
77
330
4B
100
AcDbEntity
  8
Skizziergeometrie_ISO_
  6
Continuous
 62
     7
100
AcDbLine
 10
189.655184537377
 20
19.2535360148728
 30
0.0
 11
188.7995275176
 21
17.7714945827671
 31
0.0
  0
LINE
  5
78
330
4B
100
AcDbEntity
  8
Skizziergeometrie_ISO_
  6
Continuous
 62
     7
100
AcDbLine
 10
188.510852383006
 20
17.7714945827671
 30
0.0
 11
187.655195363229
 21
19.2535360148728
 31
0.0
  0
LINE
  5
79
330
4B
100
AcDbEntity
  8
Skizziergeometrie_ISO_
  6
Continuous
 62
     7
100
AcDbLine
 10
187.655195363229
 20
19.2535360148728
 30
0.0
 11
187.655195363229
 21
15.8473707016896
 31
0.0
  0
LINE
  5
7A
330
4B
100
AcDbEntity
  8
Skizziergeometrie_ISO_
  6
Continuous
 62
     7
100
AcDbLine
 10
180.238754675162
 20
17.6450043569675
 30
0.0
 11
188.655189950303
 21
22.500640092627
 31
0.0
  0
LINE
  5
7B
330
4B
100
AcDbEntity
  8
Skizziergeometrie_ISO_
  6
Continuous
 62
     7
100
AcDbLine
 10
188.655189950303
 20
22.500640092627
 30
0.0
 11
197.071625225444
 21
17.6450043569675
 31
0.0
  0
LINE
  5
7C
330
4B
100
AcDbEntity
  8
Skizziergeometrie_ISO_
  6
Continuous
 62
     7
100
AcDbLine
 10
197.071625225444
 20
17.3562758282849
 30
0.0
 11
188.655189950303
 21
12.5006400926254
 31
0.0
  0
LINE
  5
7D
330
4B
100
AcDbEntity
  8
Skizziergeometrie_ISO_
  6
Continuous
 62
     7
100
AcDbLine
 10
188.655189950303
 20
12.5006400926254
 30
0.0
 11
180.238754675162
 21
17.3562758282849
 31
0.0
  0
LINE
  5
7E
330
4B
100
AcDbEntity
  8
Skizziergeometrie_ISO_
  6
Continuous
 62
     7
100
AcDbLine
 10
186.988528696563
 20
15.8473707016896
 30
0.0
 11
186.988528696562
 21
20.7526980593071
 31
0.0
  0
LINE
  5
7F
330
4B
100
AcDbEntity
  8
Skizziergeometrie_ISO_
  6
Continuous
 62
     7
100
AcDbLine
 10
187.482962380186
 20
20.8851811655447
 30
0.0
 11
188.655189950303
 21
18.8548234560689
 31
0.0
  0
LINE
  5
80
330
4B
100
AcDbEntity
  8
Skizziergeometrie_ISO_
  6
Continuous
 62
     7
100
AcDbLine
 10
190.321851204044
 20
14.2880685085818
 30
0.0
 11
190.321851204044
 21
20.752698059307
 31
0.0
  0
LINE
  5
81
330
4B
100
AcDbEntity
  8
Skizziergeometrie_ISO_
  6
Continuous
 62
     7
100
AcDbLine
 10
189.82741752042
 20
20.8851811655447
 30
0.0
 11
188.655189950303
 21
18.8548234560689
 31
0.0
  0
LINE
  5
82
330
4B
100
AcDbEntity
  8
Skizziergeometrie_ISO_
  6
Continuous
 62
     7
100
AcDbLine
 10
185.655190959106
 20
15.2706619304882
 30
0.0
 11
185.655190959106
 21
19.9439783665993
 31
0.0
  0
LINE
  5
83
330
4B
100
AcDbEntity
  8
Skizziergeometrie_ISO_
  6
Continuous
 62
     7
100
AcDbLine
 10
186.321857625773
 20
19.9439783665993
 30
0.0
 11
186.321857625773
 21
15.270660658657
 31
0.0
  0
LINE
  5
84
330
4B
100
AcDbEntity
  8
Skizziergeometrie_ISO_
  6
Continuous
 62
     7
100
AcDbLine
 10
186.321857625773
 20
15.270660658657
 30
0.0
 11
188.489493932086
 21
14.0201012511681
 31
0.0
  0
LINE
  5
85
330
4B
100
AcDbEntity
  8
Skizziergeometrie_ISO_
  6
Continuous
 62
     7
100
AcDbLine
 10
188.15634562976
 20
13.4426441938023
 30
0.0
 11
185.988710425088
 21
14.6932029657285
 31
0.0
  0
LINE
  5
86
330
4B
100
AcDbEntity
  8
Skizziergeometrie_ISO_
  6
Continuous
 62
     7
100
AcDbLine
 10
184.988523283636
 20
19.1539094835628
 30
0.0
 11
184.988523283636
 21
15.8473707016896
 31
0.0
  0
LINE
  5
87
330
4B
100
AcDbEntity
  8
Skizziergeometrie_ISO_
  6
Continuous
 62
     7
100
AcDbLine
 10
184.32185661697
 20
15.8473707016896
 30
0.0
 11
184.32185661697
 21
19.1539094835628
 31
0.0
  0
LINE
  5
88
330
4B
100
AcDbEntity
  8
Skizziergeometrie_ISO_
  6
Continuous
 62
     7
100
AcDbLine
 10
191.48842975933
 20
20.2327068952822
 30
0.0
 11
192.857882489926
 21
19.4426380122457
 31
0.0
  0
LINE
  5
89
330
4B
100
AcDbEntity
  8
Skizziergeometrie_ISO_
  6
Continuous
 62
     7
100
AcDbLine
 10
192.5247341876
 20
18.8651809548799
 30
0.0
 11
191.6551889415
 21
19.3668416737836
 31
0.0
  0
LINE
  5
8A
330
4B
100
AcDbEntity
  8
Skizziergeometrie_ISO_
  6
Continuous
 62
     7
100
AcDbLine
 10
191.6551889415
 20
19.3668416737836
 30
0.0
 11
191.6551889415
 21
17.8339734259596
 31
0.0
  0
LINE
  5
8B
330
4B
100
AcDbEntity
  8
Skizziergeometrie_ISO_
  6
Continuous
 62
     7
100
AcDbLine
 10
191.6551889415
 20
17.8339734259596
 30
0.0
 11
192.691308338763
 21
17.8339734259596
 31
0.0
  0
LINE
  5
8C
330
4B
100
AcDbEntity
  8
Skizziergeometrie_ISO_
  6
Continuous
 62
     7
100
AcDbLine
 10
192.691308338763
 20
17.1673067592928
 30
0.0
 11
191.6551889415
 21
17.1673067592928
 31
0.0
  0
LINE
  5
8D
330
4B
100
AcDbEntity
  8
Skizziergeometrie_ISO_
  6
Continuous
 62
     7
100
AcDbLine
 10
191.6551889415
 20
17.1673067592928
 30
0.0
 11
191.6551889415
 21
15.6344385114688
 31
0.0
  0
LINE
  5
8E
330
4B
100
AcDbEntity
  8
Skizziergeometrie_ISO_
  6
Continuous
 62
     7
100
AcDbLine
 10
191.6551889415
 20
15.6344385114688
 30
0.0
 11
192.5247341876
 21
16.1360992303725
 31
0.0
  0
LINE
  5
8F
330
4B
100
AcDbEntity
  8
Skizziergeometrie_ISO_
  6
Continuous
 62
     7
100
AcDbLine
 10
192.857882489926
 20
15.5586421730067
 30
0.0
 11
191.48842975933
 21
14.7685732899702
 31
0.0
  0
LINE
  5
90
330
4B
100
AcDbEntity
  8
Skizziergeometrie_ISO_
  6
Continuous
 62
     7
100
AcDbLine
 10
190.988522274833
 20
15.0573018186531
 30
0.0
 11
190.988522274833
 21
19.9439783665993
 31
0.0
  0
LINE
  5
91
330
4B
100
AcDbEntity
  8
Skizziergeometrie_ISO_
  6
Continuous
 62
     7
100
AcDbLine
 10
177.330189950303
 20
25.0006400926262
 30
0.0
 11
177.330189950303
 21
10.0006400926262
 31
0.0
  0
LINE
  5
92
330
4B
100
AcDbEntity
  8
Skizziergeometrie_ISO_
  6
Continuous
 62
     7
100
AcDbLine
 10
159.980189950303
 20
25.0006400926262
 30
0.0
 11
159.980189950303
 21
10.0006400926262
 31
0.0
  0
LINE
  5
93
330
4B
100
AcDbEntity
  8
Skizziergeometrie_ISO_
  6
Continuous
 62
     7
100
AcDbLine
 10
49.9801899503031
 20
10.0006400926262
 30
0.0
 11
49.9801899503031
 21
25.0006400926262
 31
0.0
  0
LINE
  5
94
330
4B
100
AcDbEntity
  8
Skizziergeometrie_ISO_
  6
Continuous
 62
     7
100
AcDbLine
 10
44.980189950303
 20
45.0006400926262
 30
0.0
 11
44.980189950303
 21
25.0006400926262
 31
0.0
  0
LINE
  5
95
330
4B
100
AcDbEntity
  8
Skizziergeometrie_ISO_
  6
Continuous
 62
     7
100
AcDbLine
 10
26.980189950303
 20
45.0006400926262
 30
0.0
 11
26.980189950303
 21
25.0006400926262
 31
0.0
  0
LINE
  5
96
330
4B
100
AcDbEntity
  8
Skizziergeometrie_ISO_
  6
Continuous
 62
     7
100
AcDbLine
 10
19.980189950303
 20
17.5006400926262
 30
0.0
 11
49.9801899503031
 21
17.5006400926262
 31
0.0
  0
LINE
  5
97
330
4B
100
AcDbEntity
  8
Skizziergeometrie_ISO_
  6
Continuous
 62
     7
100
AcDbLine
 10
19.980189950303
 20
25.0006400926262
 30
0.0
 11
199.980189950303
 21
25.0006400926262
 31
0.0
  0
LINE
  5
98
330
4B
100
AcDbEntity
  8
Skizziergeometrie_ISO_
  6
Continuous
 62
     7
100
AcDbLine
 10
19.980189950303
 20
30.0006400926262
 30
0.0
 11
199.980189950303
 21
30.0006400926262
 31
0.0
  0
LINE
  5
99
330
4B
100
AcDbEntity
  8
Skizziergeometrie_ISO_
  6
Continuous
 62
     7
100
AcDbLine
 10
19.980189950303
 20
35.0006400926262
 30
0.0
 11
199.980189950303
 21
35.0006400926262
 31
0.0
  0
LINE
  5
9A
330
4B
100
AcDbEntity
  8
Skizziergeometrie_ISO_
  6
Continuous
 62
     7
100
AcDbLine
 10
19.980189950303
 20
40.0006400926262
 30
0.0
 11
199.980189950303
 21
40.0006400926262
 31
0.0
  0
LINE
  5
9B
330
4B
100
AcDbEntity
  8
Skizziergeometrie_ISO_
  6
Continuous
 62
     7
100
AcDbLine
 10
19.980189950303
 20
45.0006400926262
 30
0.0
 11
199.980189950303
 21
45.0006400926262
 31
0.0
  0
LINE
  5
9C
102
{ACAD_REACTORS
330
D9
102
}
330
4B
100
AcDbEntity
  8
0
  6
Continuous
 62
     7
100
AcDbLine
 10
192.857882489926
 20
15.5586421730067
 30
0.0
 11
191.48842975933
 21
14.7685732899702
 31
0.0
  0
LINE
  5
9D
102
{ACAD_REACTORS
330
D9
102
}
330
4B
100
AcDbEntity
  8
0
  6
Continuous
 62
     7
100
AcDbLine
 10
190.988522274833
 20
15.0573018186531
 30
0.0
 11
190.988522274833
 21
19.9439783665993
 31
0.0
  0
LINE
  5
9E
102
{ACAD_REACTORS
330
D9
102
}
330
4B
100
AcDbEntity
  8
0
  6
Continuous
 62
     7
100
AcDbLine
 10
191.48842975933
 20
20.2327068952822
 30
0.0
 11
192.857882489926
 21
19.4426380122457
 31
0.0
  0
LINE
  5
9F
102
{ACAD_REACTORS
330
D9
102
}
330
4B
100
AcDbEntity
  8
0
  6
Continuous
 62
     7
100
AcDbLine
 10
192.5247341876
 20
18.8651809548799
 30
0.0
 11
191.6551889415
 21
19.3668416737836
 31
0.0
  0
LINE
  5
A0
102
{ACAD_REACTORS
330
D9
102
}
330
4B
100
AcDbEntity
  8
0
  6
Continuous
 62
     7
100
AcDbLine
 10
191.6551889415
 20
19.3668416737836
 30
0.0
 11
191.6551889415
 21
17.8339734259596
 31
0.0
  0
LINE
  5
A1
102
{ACAD_REACTORS
330
D9
102
}
330
4B
100
AcDbEntity
  8
0
  6
Continuous
 62
     7
100
AcDbLine
 10
191.6551889415
 20
17.8339734259596
 30
0.0
 11
192.691308338763
 21
17.8339734259596
 31
0.0
  0
LINE
  5
A2
102
{ACAD_REACTORS
330
D9
102
}
330
4B
100
AcDbEntity
  8
0
  6
Continuous
 62
     7
100
AcDbLine
 10
192.691308338763
 20
17.1673067592928
 30
0.0
 11
191.6551889415
 21
17.1673067592928
 31
0.0
  0
LINE
  5
A3
102
{ACAD_REACTORS
330
D9
102
}
330
4B
100
AcDbEntity
  8
0
  6
Continuous
 62
     7
100
AcDbLine
 10
191.6551889415
 20
17.1673067592928
 30
0.0
 11
191.6551889415
 21
15.6344385114688
 31
0.0
  0
LINE
  5
A4
102
{ACAD_REACTORS
330
D9
102
}
330
4B
100
AcDbEntity
  8
0
  6
Continuous
 62
     7
100
AcDbLine
 10
191.6551889415
 20
15.6344385114688
 30
0.0
 11
192.5247341876
 21
16.1360992303725
 31
0.0
  0
LINE
  5
A5
102
{ACAD_REACTORS
330
DA
102
}
330
4B
100
AcDbEntity
  8
0
  6
Continuous
 62
     7
100
AcDbLine
 10
186.988528696562
 20
20.7526980593071
 30
0.0
 11
186.988528696563
 21
15.8473707016896
 31
0.0
  0
LINE
  5
A6
102
{ACAD_REACTORS
330
DA
102
}
330
4B
100
AcDbEntity
  8
0
  6
Continuous
 62
     7
100
AcDbLine
 10
187.655195363229
 20
15.8473707016896
 30
0.0
 11
187.655195363229
 21
19.2535360148728
 31
0.0
  0
LINE
  5
A7
102
{ACAD_REACTORS
330
DA
102
}
330
4B
100
AcDbEntity
  8
0
  6
Continuous
 62
     7
100
AcDbLine
 10
187.655195363229
 20
19.2535360148728
 30
0.0
 11
188.510852383006
 21
17.7714945827671
 31
0.0
  0
LINE
  5
A8
102
{ACAD_REACTORS
330
DA
102
}
330
4B
100
AcDbEntity
  8
0
  6
Continuous
 62
     7
100
AcDbLine
 10
188.7995275176
 20
17.7714945827671
 30
0.0
 11
189.655184537377
 21
19.2535360148728
 31
0.0
  0
LINE
  5
A9
102
{ACAD_REACTORS
330
DA
102
}
330
4B
100
AcDbEntity
  8
0
  6
Continuous
 62
     7
100
AcDbLine
 10
189.655184537377
 20
19.2535360148728
 30
0.0
 11
189.655184537377
 21
14.2880685085818
 31
0.0
  0
LINE
  5
AA
102
{ACAD_REACTORS
330
DA
102
}
330
4B
100
AcDbEntity
  8
0
  6
Continuous
 62
     7
100
AcDbLine
 10
190.321851204044
 20
14.2880685085818
 30
0.0
 11
190.321851204044
 21
20.752698059307
 31
0.0
  0
LINE
  5
AB
102
{ACAD_REACTORS
330
DA
102
}
330
4B
100
AcDbEntity
  8
0
  6
Continuous
 62
     7
100
AcDbLine
 10
189.82741752042
 20
20.8851811655447
 30
0.0
 11
188.655189950303
 21
18.8548234560689
 31
0.0
  0
LINE
  5
AC
102
{ACAD_REACTORS
330
DA
102
}
330
4B
100
AcDbEntity
  8
0
  6
Continuous
 62
     7
100
AcDbLine
 10
188.655189950303
 20
18.8548234560689
 30
0.0
 11
187.482962380186
 21
20.8851811655447
 31
0.0
  0
LINE
  5
AD
102
{ACAD_REACTORS
330
DB
102
}
330
4B
100
AcDbEntity
  8
0
  6
Continuous
 62
     7
100
AcDbLine
 10
186.321857625773
 20
15.270660658657
 30
0.0
 11
186.321857625773
 21
19.9439783665993
 31
0.0
  0
LINE
  5
AE
102
{ACAD_REACTORS
330
DB
102
}
330
4B
100
AcDbEntity
  8
0
  6
Continuous
 62
     7
100
AcDbLine
 10
185.655190959106
 20
19.9439783665993
 30
0.0
 11
185.655190959106
 21
15.2706619304882
 31
0.0
  0
LINE
  5
AF
102
{ACAD_REACTORS
330
DB
102
}
330
4B
100
AcDbEntity
  8
0
  6
Continuous
 62
     7
100
AcDbLine
 10
185.988710425088
 20
14.6932029657285
 30
0.0
 11
188.15634562976
 21
13.4426441938023
 31
0.0
  0
LINE
  5
B0
102
{ACAD_REACTORS
330
DB
102
}
330
4B
100
AcDbEntity
  8
0
  6
Continuous
 62
     7
100
AcDbLine
 10
188.489493932086
 20
14.0201012511681
 30
0.0
 11
186.321857625773
 21
15.270660658657
 31
0.0
  0
LINE
  5
B1
102
{ACAD_REACTORS
330
DC
102
}
330
4B
100
AcDbEntity
  8
0
  6
Continuous
 62
     7
100
AcDbLine
 10
184.988523283636
 20
19.1539094835628
 30
0.0
 11
184.988523283636
 21
15.8473707016896
 31
0.0
  0
LINE
  5
B2
102
{ACAD_REACTORS
330
DC
102
}
330
4B
100
AcDbEntity
  8
0
  6
Continuous
 62
     7
100
AcDbLine
 10
184.32185661697
 20
15.8473707016896
 30
0.0
 11
184.32185661697
 21
19.1539094835628
 31
0.0
  0
ARC
  5
B3
330
4B
100
AcDbEntity
  8
Skizziergeometrie_ISO_
  6
Continuous
 62
     7
100
AcDbCircle
 10
188.655189950303
 20
17.8548279161004
 30
0.0
 40
0.1666666666662864
100
AcDbArc
 50
210.0000000000623
 51
329.9999999999426
  0
ARC
  5
B4
330
4B
100
AcDbEntity
  8
Skizziergeometrie_ISO_
  6
Continuous
 62
     7
100
AcDbCircle
 10
186.321859827834
 20
15.2706619304882
 30
0.0
 40
0.66666886872801
100
AcDbArc
 50
180.0
 51
240.0183606311481
  0
ARC
  5
B5
330
4B
100
AcDbEntity
  8
Skizziergeometrie_ISO_
  6
Continuous
 62
     7
100
AcDbCircle
 10
180.322041750744
 20
17.5006400926262
 30
0.0
 40
0.1666666666667581
100
AcDbArc
 50
119.9816393689942
 51
240.0183606310052
  0
ARC
  5
B6
330
4B
100
AcDbEntity
  8
Skizziergeometrie_ISO_
  6
Continuous
 62
     7
100
AcDbCircle
 10
196.988338149862
 20
17.5006400926262
 30
0.0
 40
0.166666666666755
100
AcDbArc
 50
299.9816393689947
 51
60.01836063100586
  0
ARC
  5
B7
330
4B
100
AcDbEntity
  8
Skizziergeometrie_ISO_
  6
Continuous
 62
     7
100
AcDbCircle
 10
191.321855608167
 20
19.9439783665993
 30
0.0
 40
0.3333333333332604
100
AcDbArc
 50
60.01836063118353
 51
180.0
  0
ARC
  5
B8
330
4B
100
AcDbEntity
  8
Skizziergeometrie_ISO_
  6
Continuous
 62
     7
100
AcDbCircle
 10
191.321855608167
 20
15.0573018186531
 30
0.0
 40
0.3333333333339965
100
AcDbArc
 50
180.0
 51
299.9816393688164
  0
ARC
  5
B9
330
4B
100
AcDbEntity
  8
Skizziergeometrie_ISO_
  6
Continuous
 62
     7
100
AcDbCircle
 10
187.253494909038
 20
20.7526980593071
 30
0.0
 40
0.2649662124751274
100
AcDbArc
 50
30.00000000000922
 51
180.0
  0
ARC
  5
BA
330
4B
100
AcDbEntity
  8
Skizziergeometrie_ISO_
  6
Continuous
 62
     7
100
AcDbCircle
 10
187.321862029896
 20
15.8473707016896
 30
0.0
 40
0.3333333333330017
100
AcDbArc
 50
180.0
 51
0.0
  0
ARC
  5
BB
330
4B
100
AcDbEntity
  8
Skizziergeometrie_ISO_
  6
Continuous
 62
     7
100
AcDbCircle
 10
189.98851787071
 20
14.2880685085818
 30
0.0
 40
0.3333333333330017
100
AcDbArc
 50
180.0
 51
0.0
  0
ARC
  5
BC
330
4B
100
AcDbEntity
  8
Skizziergeometrie_ISO_
  6
Continuous
 62
     7
100
AcDbCircle
 10
190.056884991568
 20
20.752698059307
 30
0.0
 40
0.2649662124759971
100
AcDbArc
 50
0.0
 51
149.9999999999752
  0
ARC
  5
BD
330
4B
100
AcDbEntity
  8
Skizziergeometrie_ISO_
  6
Continuous
 62
     7
100
AcDbCircle
 10
185.988524292439
 20
19.9439783665993
 30
0.0
 40
0.3333333333339965
100
AcDbArc
 50
0.0
 51
180.0
  0
ARC
  5
BE
330
4B
100
AcDbEntity
  8
Skizziergeometrie_ISO_
  6
Continuous
 62
     7
100
AcDbCircle
 10
188.322919780923
 20
13.7313727224852
 30
0.0
 40
0.3333333333332604
100
AcDbArc
 50
240.0183606311836
 51
60.01836063118368
  0
ARC
  5
BF
330
4B
100
AcDbEntity
  8
Skizziergeometrie_ISO_
  6
Continuous
 62
     7
100
AcDbCircle
 10
184.655189950303
 20
19.1539094835628
 30
0.0
 40
0.3333333333330017
100
AcDbArc
 50
0.0
 51
180.0
  0
ARC
  5
C0
330
4B
100
AcDbEntity
  8
Skizziergeometrie_ISO_
  6
Continuous
 62
     7
100
AcDbCircle
 10
184.655189950303
 20
15.8473707016896
 30
0.0
 40
0.3333333333330017
100
AcDbArc
 50
180.0
 51
0.0
  0
ARC
  5
C1
330
4B
100
AcDbEntity
  8
Skizziergeometrie_ISO_
  6
Continuous
 62
     7
100
AcDbCircle
 10
192.691308338763
 20
19.1539094835628
 30
0.0
 40
0.3333333333332746
100
AcDbArc
 50
240.0183606311793
 51
60.01836063118353
  0
ARC
  5
C2
330
4B
100
AcDbEntity
  8
Skizziergeometrie_ISO_
  6
Continuous
 62
     7
100
AcDbCircle
 10
192.691308338763
 20
17.5006400926262
 30
0.0
 40
0.3333333333333997
100
AcDbArc
 50
270.0
 51
90.0
  0
ARC
  5
C3
330
4B
100
AcDbEntity
  8
Skizziergeometrie_ISO_
  6
Continuous
 62
     7
100
AcDbCircle
 10
192.691308338763
 20
15.8473707016896
 30
0.0
 40
0.3333333333332619
100
AcDbArc
 50
299.9816393688163
 51
119.9816393688206
  0
ARC
  5
C4
102
{ACAD_REACTORS
330
D9
102
}
330
4B
100
AcDbEntity
  8
0
  6
Continuous
 62
     7
100
AcDbCircle
 10
191.321855608167
 20
15.0573018186531
 30
0.0
 40
0.3333333333339965
100
AcDbArc
 50
180.0
 51
299.9816393688164
  0
ARC
  5
C5
102
{ACAD_REACTORS
330
D9
102
}
330
4B
100
AcDbEntity
  8
0
  6
Continuous
 62
     7
100
AcDbCircle
 10
191.321855608167
 20
19.9439783665993
 30
0.0
 40
0.3333333333332604
100
AcDbArc
 50
60.01836063118353
 51
180.0
  0
ARC
  5
C6
102
{ACAD_REACTORS
330
D9
102
}
330
4B
100
AcDbEntity
  8
0
  6
Continuous
 62
     7
100
AcDbCircle
 10
192.691308338763
 20
19.1539094835628
 30
0.0
 40
0.3333333333332746
100
AcDbArc
 50
240.0183606311793
 51
60.01835942368935
  0
ARC
  5
C7
102
{ACAD_REACTORS
330
D9
102
}
330
4B
100
AcDbEntity
  8
0
  6
Continuous
 62
     7
100
AcDbCircle
 10
192.691308338763
 20
17.5006400926262
 30
0.0
 40
0.3333333333333997
100
AcDbArc
 50
270.0
 51
90.0
  0
ARC
  5
C8
102
{ACAD_REACTORS
330
D9
102
}
330
4B
100
AcDbEntity
  8
0
  6
Continuous
 62
     7
100
AcDbCircle
 10
192.691308338763
 20
15.8473707016896
 30
0.0
 40
0.3333333333332619
100
AcDbArc
 50
299.9816393688163
 51
119.9816393688206
  0
ARC
  5
C9
102
{ACAD_REACTORS
330
DA
102
}
330
4B
100
AcDbEntity
  8
0
  6
Continuous
 62
     7
100
AcDbCircle
 10
187.253494909038
 20
20.7526980593071
 30
0.0
 40
0.2649662124751274
100
AcDbArc
 50
30.00000000000922
 51
180.0
  0
ARC
  5
CA
102
{ACAD_REACTORS
330
DA
102
}
330
4B
100
AcDbEntity
  8
0
  6
Continuous
 62
     7
100
AcDbCircle
 10
187.321862029896
 20
15.8473707016896
 30
0.0
 40
0.3333333333330017
100
AcDbArc
 50
180.0
 51
0.0
  0
ARC
  5
CB
102
{ACAD_REACTORS
330
DA
102
}
330
4B
100
AcDbEntity
  8
0
  6
Continuous
 62
     7
100
AcDbCircle
 10
188.655189950303
 20
17.8548279161004
 30
0.0
 40
0.1666666666662864
100
AcDbArc
 50
210.0000000000623
 51
329.9999999999426
  0
ARC
  5
CC
102
{ACAD_REACTORS
330
DA
102
}
330
4B
100
AcDbEntity
  8
0
  6
Continuous
 62
     7
100
AcDbCircle
 10
189.98851787071
 20
14.2880685085818
 30
0.0
 40
0.3333333333330017
100
AcDbArc
 50
180.0
 51
0.0
  0
ARC
  5
CD
102
{ACAD_REACTORS
330
DA
102
}
330
4B
100
AcDbEntity
  8
0
  6
Continuous
 62
     7
100
AcDbCircle
 10
190.056884991568
 20
20.752698059307
 30
0.0
 40
0.2649662124759971
100
AcDbArc
 50
0.0
 51
149.9999999999752
  0
ARC
  5
CE
102
{ACAD_REACTORS
330
DB
102
}
330
4B
100
AcDbEntity
  8
0
  6
Continuous
 62
     7
100
AcDbCircle
 10
185.988524292439
 20
19.9439783665993
 30
0.0
 40
0.3333333333339965
100
AcDbArc
 50
0.0
 51
180.0
  0
ARC
  5
CF
102
{ACAD_REACTORS
330
DB
102
}
330
4B
100
AcDbEntity
  8
0
  6
Continuous
 62
     7
100
AcDbCircle
 10
186.321859827834
 20
15.2706619304882
 30
0.0
 40
0.66666886872801
100
AcDbArc
 50
180.0
 51
240.0183606311481
  0
ARC
  5
D0
102
{ACAD_REACTORS
330
DB
102
}
330
4B
100
AcDbEntity
  8
0
  6
Continuous
 62
     7
100
AcDbCircle
 10
188.322919780923
 20
13.7313727224852
 30
0.0
 40
0.3333333333332604
100
AcDbArc
 50
240.0183606311836
 51
60.01836063118368
  0
ARC
  5
D1
102
{ACAD_REACTORS
330
DC
102
}
330
4B
100
AcDbEntity
  8
0
  6
Continuous
 62
     7
100
AcDbCircle
 10
184.655189950303
 20
15.8473707016896
 30
0.0
 40
0.3333333333330017
100
AcDbArc
 50
180.0
 51
0.0
  0
ARC
  5
D2
102
{ACAD_REACTORS
330
DC
102
}
330
4B
100
AcDbEntity
  8
0
  6
Continuous
 62
     7
100
AcDbCircle
 10
184.655189950303
 20
19.1539094835628
 30
0.0
 40
0.3333333333330017
100
AcDbArc
 50
0.0
 51
180.0
  0
MTEXT
  5
D4
330
4B
100
AcDbEntity
  8
Symbole_ISO_
 62
     7
100
AcDbMText
 10
39.980189950303
 20
21.2506400926262
 30
0.0
 40
3.49999994039535
 41
0.0
 71
     5
 72
     1
  1
14.12.2006
  7
CONVERTER_11
 73
     1
 44
0.75727272727273
  0
MTEXT
  5
D6
330
4B
100
AcDbEntity
  8
Symbole_ISO_
 62
     7
100
AcDbMText
 10
168.655189950303
 20
22.5006400926262
 30
0.0
 40
2.5
 41
0.0
 71
     5
 72
     1
  1
Scale
  7
CONVERTER_12
 73
     1
 44
0.75727272727273
  0
MTEXT
  5
D7
330
4B
100
AcDbEntity
  8
Symbole_ISO_
 62
     7
100
AcDbMText
 10
20.980189950303
 20
13.7506400926262
 30
0.0
 40
2.5
 41
0.0
 71
     4
 72
     1
  1
Sign.
  7
CONVERTER_12
 73
     1
 44
0.75727272727273
  0
MTEXT
  5
D8
330
4B
100
AcDbEntity
  8
Symbole_ISO_
 62
     7
100
AcDbMText
 10
20.980189950303
 20
21.2506400926262
 30
0.0
 40
2.5
 41
0.0
 71
     4
 72
     1
  1
Date
  7
CONVERTER_12
 73
     1
 44
0.75727272727273
  0
HATCH
  5
D9
330
4B
100
AcDbEntity
  8
Schraffur
  6
Continuous
 62
     7
100
AcDbHatch
 10
0.0
 20
0.0
 30
0.0
210
0.0
220
0.0
230
1.0
  2
SOLID
 70
     1
 71
     1
 91
        1
 92
        1
 93
       14
 72
     2
 10
192.691308338763
 20
19.1539094835628
 40
0.3333333333332746
 50
299.9816405763107
 51
479.9816393688208
 73
     0
 72
     1
 10
192.5247341876
 20
18.8651809548799
 11
191.6551889415
 21
19.3668416737836
 72
     1
 10
191.6551889415
 20
19.3668416737836
 11
191.6551889415
 21
17.8339734259596
 72
     1
 10
191.6551889415
 20
17.8339734259596
 11
192.691308338763
 21
17.8339734259596
 72
     2
 10
192.691308338763
 20
17.5006400926262
 40
0.3333333333333997
 50
270.0
 51
450.0
 73
     0
 72
     1
 10
192.691308338763
 20
17.1673067592928
 11
191.6551889415
 21
17.1673067592928
 72
     1
 10
191.6551889415
 20
17.1673067592928
 11
191.6551889415
 21
15.6344385114688
 72
     1
 10
191.6551889415
 20
15.6344385114688
 11
192.5247341876
 21
16.1360992303725
 72
     2
 10
192.691308338763
 20
15.8473707016896
 40
0.3333333333332619
 50
240.0183606311795
 51
420.0183606311837
 73
     0
 72
     1
 10
192.857882489926
 20
15.5586421730067
 11
191.48842975933
 21
14.7685732899702
 72
     2
 10
191.321855608167
 20
15.0573018186531
 40
0.3333333333339965
 50
60.01836063118353
 51
180.0
 73
     0
 72
     1
 10
190.988522274833
 20
15.0573018186531
 11
190.988522274833
 21
19.9439783665993
 72
     2
 10
191.321855608167
 20
19.9439783665993
 40
0.3333333333332604
 50
180.0
 51
299.9816393688164
 73
     0
 72
     1
 10
191.48842975933
 20
20.2327068952822
 11
192.857882489926
 21
19.4426380122457
 97
       14
330
9C
330
C4
330
9D
330
C5
330
9E
330
C6
330
9F
330
A0
330
A1
330
C7
330
A2
330
A3
330
A4
330
C8
 75
     0
 76
     1
 98
        1
 10
0.0
 20
0.0
  0
HATCH
  5
DA
330
4B
100
AcDbEntity
  8
Schraffur
  6
Continuous
 62
     7
100
AcDbHatch
 10
0.0
 20
0.0
 30
0.0
210
0.0
220
0.0
230
1.0
  2
SOLID
 70
     1
 71
     1
 91
        1
 92
        1
 93
       13
 72
     2
 10
187.253494909038
 20
20.7526980593071
 40
0.2649662124751274
 50
30.00000000000922
 51
180.0
 73
     1
 72
     1
 10
186.988528696562
 20
20.7526980593071
 11
186.988528696563
 21
15.8473707016896
 72
     2
 10
187.321862029896
 20
15.8473707016896
 40
0.3333333333330017
 50
180.0
 51
360.0
 73
     1
 72
     1
 10
187.655195363229
 20
15.8473707016896
 11
187.655195363229
 21
19.2535360148728
 72
     1
 10
187.655195363229
 20
19.2535360148728
 11
188.510852383006
 21
17.7714945827671
 72
     2
 10
188.655189950303
 20
17.8548279161004
 40
0.1666666666662864
 50
210.0000000000623
 51
329.9999999999426
 73
     1
 72
     1
 10
188.7995275176
 20
17.7714945827671
 11
189.655184537377
 21
19.2535360148728
 72
     1
 10
189.655184537377
 20
19.2535360148728
 11
189.655184537377
 21
14.2880685085818
 72
     2
 10
189.98851787071
 20
14.2880685085818
 40
0.3333333333330017
 50
180.0
 51
360.0
 73
     1
 72
     1
 10
190.321851204044
 20
14.2880685085818
 11
190.321851204044
 21
20.752698059307
 72
     2
 10
190.056884991568
 20
20.752698059307
 40
0.2649662124759971
 50
0.0
 51
149.9999999999752
 73
     1
 72
     1
 10
189.82741752042
 20
20.8851811655447
 11
188.655189950303
 21
18.8548234560689
 72
     1
 10
188.655189950303
 20
18.8548234560689
 11
187.482962380186
 21
20.8851811655447
 97
       13
330
AB
330
CD
330
AA
330
CC
330
A9
330
A8
330
CB
330
A7
330
A6
330
CA
330
A5
330
C9
330
AC
 75
     0
 76
     1
 98
        1
 10
0.0
 20
0.0
  0
HATCH
  5
DB
330
4B
100
AcDbEntity
  8
Schraffur
  6
Continuous
 62
     7
100
AcDbHatch
 10
0.0
 20
0.0
 30
0.0
210
0.0
220
0.0
230
1.0
  2
SOLID
 70
     1
 71
     1
 91
        1
 92
        1
 93
        7
 72
     1
 10
186.321857625773
 20
15.270660658657
 11
186.321857625773
 21
19.9439783665993
 72
     2
 10
185.988524292439
 20
19.9439783665993
 40
0.3333333333339965
 50
0.0
 51
180.0
 73
     1
 72
     1
 10
185.655190959106
 20
19.9439783665993
 11
185.655190959106
 21
15.2706619304882
 72
     2
 10
186.321859827834
 20
15.2706619304882
 40
0.66666886872801
 50
180.0
 51
240.0183606311481
 73
     1
 72
     1
 10
185.988710425088
 20
14.6932029657285
 11
188.15634562976
 21
13.4426441938023
 72
     2
 10
188.322919780923
 20
13.7313727224852
 40
0.3333333333332604
 50
240.0183606311836
 51
420.0183606311837
 73
     1
 72
     1
 10
188.489493932086
 20
14.0201012511681
 11
186.321857625773
 21
15.270660658657
 97
        7
330
D0
330
AF
330
CF
330
AE
330
CE
330
AD
330
B0
 75
     0
 76
     1
 98
        1
 10
0.0
 20
0.0
  0
HATCH
  5
DC
330
4B
100
AcDbEntity
  8
Schraffur
  6
Continuous
 62
     7
100
AcDbHatch
 10
0.0
 20
0.0
 30
0.0
210
0.0
220
0.0
230
1.0
  2
SOLID
 70
     1
 71
     1
 91
        1
 92
        1
 93
        4
 72
     1
 10
184.988523283636
 20
19.1539094835628
 11
184.988523283636
 21
15.8473707016896
 72
     2
 10
184.655189950303
 20
15.8473707016896
 40
0.3333333333330017
 50
0.0
 51
180.0
 73
     0
 72
     1
 10
184.32185661697
 20
15.8473707016896
 11
184.32185661697
 21
19.1539094835628
 72
     2
 10
184.655189950303
 20
19.1539094835628
 40
0.3333333333330017
 50
180.0
 51
360.0
 73
     0
 97
        4
330
B1
330
D1
330
B2
330
D2
 75
     0
 76
     1
 98
        1
 10
0.0
 20
0.0
  0
ENDBLK
  5
4D
330
4B
100
AcDbEntity
  8
0
100
AcDbBlockEnd
  0
BLOCK
  5
4F
330
4E
100
AcDbEntity
  8
0
100
AcDbBlockBegin
  2
Ränder_Ilme_Rahmen_A4_quer
 70
     0
 10
0.0
 20
0.0
 30
0.0
  3
Ränder_Ilme_Rahmen_A4_quer
  1

  0
LINE
  5
DD
330
4E
100
AcDbEntity
  8
Skizziergeometrie_ISO_
  6
Continuous
 62
     7
100
AcDbLine
 10
287.0
 20
190.0
 30
0.0
 11
287.0
 21
10.0
 31
0.0
  0
LINE
  5
DE
330
4E
100
AcDbEntity
  8
Skizziergeometrie_ISO_
  6
Continuous
 62
     7
100
AcDbLine
 10
148.5
 20
210.0
 30
0.0
 11
148.5
 21
196.0
 31
0.0
  0
LINE
  5
DF
330
4E
100
AcDbEntity
  8
Skizziergeometrie_ISO_
  6
Continuous
 62
     7
100
AcDbLine
 10
9.99999999999998
 20
9.99999999999995
 30
0.0
 11
287.0
 21
10.0
 31
0.0
  0
LINE
  5
E0
330
4E
100
AcDbEntity
  8
Skizziergeometrie_ISO_
  6
Continuous
 62
     7
100
AcDbLine
 10
10.0
 20
190.0
 30
0.0
 11
287.0
 21
190.0
 31
0.0
  0
LINE
  5
E1
330
4E
100
AcDbEntity
  8
Skizziergeometrie_ISO_
  6
Continuous
 62
     7
100
AcDbLine
 10
9.99999999999998
 20
9.99999999999995
 30
0.0
 11
10.0
 21
190.0
 31
0.0
  0
MTEXT
  5
E2
330
4E
100
AcDbEntity
  8
Symbole_ISO_
 62
     7
100
AcDbMText
 10
148.5
 20
196.0
 30
0.0
 40
3.5
 41
0.0
 71
     2
 72
     1
  1
Diritti riservati     All rights reseved
  7
CONVERTER_12
 73
     1
 44
0.75727272727273
  0
ENDBLK
  5
50
330
4E
100
AcDbEntity
  8
0
100
AcDbBlockEnd
  0
BLOCK
  5
2B0
330
2A8
100
AcDbEntity
  8
0
100
AcDbBlockBegin
  2
*D3
 70
     1
 10
0.0
 20
0.0
 30
0.0
  3
*D3
  1

  0
LINE
  5
2A9
330
2A8
100
AcDbEntity
  8
Bemaßungen_TC_020513_DIN_
  6
Continuous
 62
     7
100
AcDbLine
 10
142.9786097896732
 20
159.6149295129068
 30
0.0
 11
148.8042530577417
 21
131.0999387797291
 31
0.0
  0
LINE
  5
2AA
330
2A8
100
AcDbEntity
  8
Bemaßungen_TC_020513_DIN_
  6
Continuous
 62
     7
100
AcDbLine
 10
134.1078243538641
 20
128.0974425929154
 30
0.0
 11
150.7637768849255
 21
131.5002716046376
 31
0.0
  0
LINE
  5
2AB
330
2A8
100
AcDbEntity
  8
Bemaßungen_TC_020513_DIN_
  6
Continuous
 62
     7
100
AcDbLine
 10
128.2821810857956
 20
156.6124333260931
 30
0.0
 11
144.9381336168569
 21
160.0152623378153
 31
0.0
  0
SOLID
  5
2AC
330
2A8
100
AcDbEntity
  8
Bemaßungen_TC_020513_DIN_
 62
     7
100
AcDbTrace
 10
143.8014960782222
 20
157.231405749259
 30
0.0
 11
143.1565555633954
 21
157.0996437085954
 31
0.0
 12
142.9786097896732
 22
159.6149295129068
 32
0.0
 13
142.9786097896732
 23
159.6149295129068
 33
0.0
  0
SOLID
  5
2AD
330
2A8
100
AcDbEntity
  8
Bemaßungen_TC_020513_DIN_
 62
     7
100
AcDbTrace
 10
147.9813667691927
 20
133.483462543377
 30
0.0
 11
148.6263072840195
 21
133.6152245840406
 31
0.0
 12
148.8042530577417
 22
131.0999387797291
 32
0.0
 13
148.8042530577417
 23
131.0999387797291
 33
0.0
  0
MTEXT
  5
2AF
330
2A8
100
AcDbEntity
  8
Bemaßungen_TC_020513_DIN_
 62
     7
100
AcDbMText
 10
147.36013693594
 20
151.7652500685552
 30
0.0
 40
3.5
 41
0.0
 71
     7
 72
     1
  1
NPT 3/4"
  7
CONVERTER_14
 11
0.2001664124542526
 21
-0.9797619135918655
 31
0.0
 73
     1
 44
0.45454545454545
  0
ENDBLK
  5
2B1
330
2A8
100
AcDbEntity
  8
0
100
AcDbBlockEnd
  0
BLOCK
  5
2BB
330
2B4
100
AcDbEntity
  8
0
100
AcDbBlockBegin
  2
*D4
 70
     1
 10
0.0
 20
0.0
 30
0.0
  3
*D4
  1

  0
LINE
  5
2B5
330
2B4
100
AcDbEntity
  8
Bemaßungen_TC_020513_DIN_
  6
Continuous
 62
     7
100
AcDbLine
 10
43.61277514707814
 20
91.13921404679189
 30
0.0
 11
43.61277514707814
 21
161.1392140467918
 31
0.0
  0
LINE
  5
2B6
330
2B4
100
AcDbEntity
  8
Bemaßungen_TC_020513_DIN_
  6
Continuous
 62
     7
100
AcDbLine
 10
58.6127751470781
 20
91.13921404679189
 30
0.0
 11
41.61277514707814
 21
91.13921404679189
 31
0.0
  0
LINE
  5
2B7
330
2B4
100
AcDbEntity
  8
Bemaßungen_TC_020513_DIN_
  6
Continuous
 62
     7
100
AcDbLine
 10
67.7259592202399
 20
161.1392140467918
 30
0.0
 11
41.61277514707814
 21
161.1392140467918
 31
0.0
  0
SOLID
  5
2B8
330
2B4
100
AcDbEntity
  8
Bemaßungen_TC_020513_DIN_
 62
     7
100
AcDbTrace
 10
43.94190639104663
 20
158.6392140467918
 30
0.0
 11
43.28364390310965
 21
158.6392140467918
 31
0.0
 12
43.61277514707814
 22
161.1392140467918
 32
0.0
 13
43.61277514707814
 23
161.1392140467918
 33
0.0
  0
SOLID
  5
2B9
330
2B4
100
AcDbEntity
  8
Bemaßungen_TC_020513_DIN_
 62
     7
100
AcDbTrace
 10
43.28364390310965
 20
93.63921404679189
 30
0.0
 11
43.94190639104663
 21
93.63921404679189
 31
0.0
 12
43.61277514707814
 22
91.13921404679189
 32
0.0
 13
43.61277514707814
 23
91.13921404679189
 33
0.0
  0
MTEXT
  5
2BA
330
2B4
100
AcDbEntity
  8
Bemaßungen_TC_020513_DIN_
 62
     7
100
AcDbMText
 10
40.9887642330263
 20
123.652686079534
 30
0.0
 40
3.5
 41
0.0
 71
     7
 72
     1
  1
70
  7
CONVERTER_14
 11
0.0
 21
1.0
 31
0.0
 73
     1
 44
0.45454545454545
  0
ENDBLK
  5
2BC
330
2B4
100
AcDbEntity
  8
0
100
AcDbBlockEnd
  0
BLOCK
  5
2C6
330
2BF
100
AcDbEntity
  8
0
100
AcDbBlockBegin
  2
*D5
 70
     1
 10
0.0
 20
0.0
 30
0.0
  3
*D5
  1

  0
LINE
  5
2C0
330
2BF
100
AcDbEntity
  8
Bemaßungen_TC_020513_DIN_
  6
Continuous
 62
     7
100
AcDbLine
 10
250.3150230196162
 20
64.63921404679166
 30
0.0
 11
193.3150230196161
 21
64.63921404679166
 31
0.0
  0
LINE
  5
2C1
330
2BF
100
AcDbEntity
  8
Bemaßungen_TC_020513_DIN_
  6
Continuous
 62
     7
100
AcDbLine
 10
250.3150230196162
 20
97.63921404679171
 30
0.0
 11
250.3150230196162
 21
62.63921404679166
 31
0.0
  0
LINE
  5
2C2
330
2BF
100
AcDbEntity
  8
Bemaßungen_TC_020513_DIN_
  6
Continuous
 62
     7
100
AcDbLine
 10
193.3150230196161
 20
97.63921404679171
 30
0.0
 11
193.3150230196161
 21
62.63921404679166
 31
0.0
  0
SOLID
  5
2C3
330
2BF
100
AcDbEntity
  8
Bemaßungen_TC_020513_DIN_
 62
     7
100
AcDbTrace
 10
195.8150230196161
 20
64.96834529076015
 30
0.0
 11
195.8150230196161
 21
64.31008280282317
 31
0.0
 12
193.3150230196161
 22
64.63921404679166
 32
0.0
 13
193.3150230196161
 23
64.63921404679166
 33
0.0
  0
SOLID
  5
2C4
330
2BF
100
AcDbEntity
  8
Bemaßungen_TC_020513_DIN_
 62
     7
100
AcDbTrace
 10
247.8150230196162
 20
64.31008280282317
 30
0.0
 11
247.8150230196162
 21
64.96834529076015
 31
0.0
 12
250.3150230196162
 22
64.63921404679166
 32
0.0
 13
250.3150230196162
 23
64.63921404679166
 33
0.0
  0
MTEXT
  5
2C5
330
2BF
100
AcDbEntity
  8
Bemaßungen_TC_020513_DIN_
 62
     7
100
AcDbMText
 10
219.308201737215
 20
67.2489002678012
 30
0.0
 40
3.5
 41
0.0
 71
     7
 72
     1
  1
57
  7
CONVERTER_14
 11
0.9999999999970619
 21
2.424068405545306E-6
 31
0.0
 73
     1
 44
0.45454545454545
  0
ENDBLK
  5
2C7
330
2BF
100
AcDbEntity
  8
0
100
AcDbBlockEnd
  0
BLOCK
  5
2D1
330
2CA
100
AcDbEntity
  8
0
100
AcDbBlockBegin
  2
*D6
 70
     1
 10
0.0
 20
0.0
 30
0.0
  3
*D6
  1

  0
LINE
  5
2CB
330
2CA
100
AcDbEntity
  8
Bemaßungen_TC_020513_DIN_
  6
Continuous
 62
     7
100
AcDbLine
 10
243.3150230196114
 20
75.13921404679176
 30
0.0
 11
200.3150230196114
 21
75.13921404679176
 31
0.0
  0
LINE
  5
2CC
330
2CA
100
AcDbEntity
  8
Bemaßungen_TC_020513_DIN_
  6
Continuous
 62
     7
100
AcDbLine
 10
243.3150230196114
 20
90.13921404679179
 30
0.0
 11
243.3150230196114
 21
73.13921404679176
 31
0.0
  0
LINE
  5
2CD
330
2CA
100
AcDbEntity
  8
Bemaßungen_TC_020513_DIN_
  6
Continuous
 62
     7
100
AcDbLine
 10
200.3150230196114
 20
90.13921404679179
 30
0.0
 11
200.3150230196114
 21
73.13921404679176
 31
0.0
  0
SOLID
  5
2CE
330
2CA
100
AcDbEntity
  8
Bemaßungen_TC_020513_DIN_
 62
     7
100
AcDbTrace
 10
202.8150230196114
 20
75.46834529076025
 30
0.0
 11
202.8150230196114
 21
74.81008280282327
 31
0.0
 12
200.3150230196114
 22
75.13921404679176
 32
0.0
 13
200.3150230196114
 23
75.13921404679176
 33
0.0
  0
SOLID
  5
2CF
330
2CA
100
AcDbEntity
  8
Bemaßungen_TC_020513_DIN_
 62
     7
100
AcDbTrace
 10
240.8150230196114
 20
74.81008280282327
 30
0.0
 11
240.8150230196114
 21
75.46834529076025
 31
0.0
 12
243.3150230196114
 22
75.13921404679176
 32
0.0
 13
243.3150230196114
 23
75.13921404679176
 33
0.0
  0
MTEXT
  5
2D0
330
2CA
100
AcDbEntity
  8
Bemaßungen_TC_020513_DIN_
 62
     7
100
AcDbMText
 10
219.237771996419
 20
77.765612409684
 30
0.0
 40
3.5
 41
0.0
 71
     7
 72
     1
  1
43
  7
CONVERTER_14
 11
0.9999999999970619
 21
2.424068405545306E-6
 31
0.0
 73
     1
 44
0.45454545454545
  0
ENDBLK
  5
2D2
330
2CA
100
AcDbEntity
  8
0
100
AcDbBlockEnd
  0
BLOCK
  5
2DC
330
2D5
100
AcDbEntity
  8
0
100
AcDbBlockBegin
  2
*D7
 70
     1
 10
0.0
 20
0.0
 30
0.0
  3
*D7
  1

  0
LINE
  5
2D6
330
2D5
100
AcDbEntity
  8
Bemaßungen_TC_020513_DIN_
  6
Continuous
 62
     7
100
AcDbLine
 10
126.6127751470781
 20
75.26421404679166
 30
0.0
 11
53.61277514707821
 21
75.26421404679166
 31
0.0
  0
LINE
  5
2D7
330
2D5
100
AcDbEntity
  8
Bemaßungen_TC_020513_DIN_
  6
Continuous
 62
     7
100
AcDbLine
 10
126.6127751470781
 20
96.2642140467917
 30
0.0
 11
126.6127751470781
 21
73.26421404679166
 31
0.0
  0
LINE
  5
2D8
330
2D5
100
AcDbEntity
  8
Bemaßungen_TC_020513_DIN_
  6
Continuous
 62
     7
100
AcDbLine
 10
53.61277514707821
 20
96.2642140467917
 30
0.0
 11
53.61277514707821
 21
73.26421404679166
 31
0.0
  0
SOLID
  5
2D9
330
2D5
100
AcDbEntity
  8
Bemaßungen_TC_020513_DIN_
 62
     7
100
AcDbTrace
 10
56.11277514707821
 20
75.59334529076015
 30
0.0
 11
56.11277514707821
 21
74.93508280282317
 31
0.0
 12
53.61277514707821
 22
75.26421404679166
 32
0.0
 13
53.61277514707821
 23
75.26421404679166
 33
0.0
  0
SOLID
  5
2DA
330
2D5
100
AcDbEntity
  8
Bemaßungen_TC_020513_DIN_
 62
     7
100
AcDbTrace
 10
124.1127751470781
 20
74.93508280282317
 30
0.0
 11
124.1127751470781
 21
75.59334529076015
 31
0.0
 12
126.6127751470781
 22
75.26421404679166
 32
0.0
 13
126.6127751470781
 23
75.26421404679166
 33
0.0
  0
MTEXT
  5
2DB
330
2D5
100
AcDbEntity
  8
Bemaßungen_TC_020513_DIN_
 62
     7
100
AcDbMText
 10
87.6202785577194
 20
77.8906124096839
 30
0.0
 40
3.5
 41
0.0
 71
     7
 72
     1
  1
73
  7
CONVERTER_14
 11
0.9999999999970619
 21
2.424068405545306E-6
 31
0.0
 73
     1
 44
0.45454545454545
  0
ENDBLK
  5
2DD
330
2D5
100
AcDbEntity
  8
0
100
AcDbBlockEnd
  0
ENDSEC
  0
SECTION
  2
ENTITIES
  0
INSERT
  5
73
330
1F
100
AcDbEntity
  8
0
100
AcDbBlockReference
  2
Schriftfelder_Ilme
 10
87.019810049697
 20
-0.00064009262625
 30
0.0
  0
INSERT
  5
74
330
1F
100
AcDbEntity
  8
0
100
AcDbBlockReference
  2
Ränder_Ilme_Rahmen_A4_quer
 10
0.0
 20
0.0
 30
0.0
  0
POINT
  5
E3
330
1F
100
AcDbEntity
  8
Bemaßungen_TC_020513_DIN_
 62
     7
100
AcDbPoint
 10
133.128062440273
 20
127.897276180461
 30
0.0
  0
POINT
  5
E4
330
1F
100
AcDbEntity
  8
Bemaßungen_TC_020513_DIN_
 62
     7
100
AcDbPoint
 10
127.302419172204
 20
156.412266913639
 30
0.0
  0
POINT
  5
E5
330
1F
100
AcDbEntity
  8
Bemaßungen_TC_020513_DIN_
 62
     7
100
AcDbPoint
 10
59.6127751470782
 20
91.1392140467917
 30
0.0
  0
POINT
  5
E6
330
1F
100
AcDbEntity
  8
Bemaßungen_TC_020513_DIN_
 62
     7
100
AcDbPoint
 10
68.7259592202399
 20
161.139214046792
 30
0.0
  0
POINT
  5
E7
330
1F
100
AcDbEntity
  8
Bemaßungen_TC_020513_DIN_
 62
     7
100
AcDbPoint
 10
250.315023019616
 20
98.6392140467917
 30
0.0
  0
POINT
  5
E8
330
1F
100
AcDbEntity
  8
Bemaßungen_TC_020513_DIN_
 62
     7
100
AcDbPoint
 10
193.315023019616
 20
98.6392140467917
 30
0.0
  0
POINT
  5
E9
330
1F
100
AcDbEntity
  8
Bemaßungen_TC_020513_DIN_
 62
     7
100
AcDbPoint
 10
243.315023019611
 20
91.1392140467917
 30
0.0
  0
POINT
  5
EA
330
1F
100
AcDbEntity
  8
Bemaßungen_TC_020513_DIN_
 62
     7
100
AcDbPoint
 10
200.315023019611
 20
91.1392140467917
 30
0.0
  0
POINT
  5
EB
330
1F
100
AcDbEntity
  8
Bemaßungen_TC_020513_DIN_
 62
     7
100
AcDbPoint
 10
126.612775147078
 20
97.2642140467917
 30
0.0
  0
POINT
  5
EC
330
1F
100
AcDbEntity
  8
Bemaßungen_TC_020513_DIN_
 62
     7
100
AcDbPoint
 10
53.6127751470782
 20
97.2642140467917
 30
0.0
  0
LINE
  5
166
330
1F
100
AcDbEntity
  8
Sichtbare_Kanten_TC_020513_DIN_
  6
Continuous
 62
     7
100
AcDbLine
 10
237.315023019613
 20
161.139214046792
 30
0.0
 11
206.315023019613
 21
161.139214046792
 31
0.0
  0
LINE
  5
167
330
1F
100
AcDbEntity
  8
Sichtbare_Kanten_TC_020513_DIN_
  6
Continuous
 62
     7
100
AcDbLine
 10
242.615023019611
 20
104.089214046792
 30
0.0
 11
242.615023019611
 21
104.189214046792
 31
0.0
  0
LINE
  5
168
330
1F
100
AcDbEntity
  8
Sichtbare_Kanten_TC_020513_DIN_
  6
Continuous
 62
     7
100
AcDbLine
 10
223.315023019609
 20
104.189214046792
 30
0.0
 11
237.315023019609
 21
104.189214046792
 31
0.0
  0
LINE
  5
169
330
1F
100
AcDbEntity
  8
Sichtbare_Kanten_TC_020513_DIN_
  6
Continuous
 62
     7
100
AcDbLine
 10
242.615023019611
 20
104.189214046792
 30
0.0
 11
237.315023019609
 21
104.189214046792
 31
0.0
  0
LINE
  5
16A
330
1F
100
AcDbEntity
  8
Sichtbare_Kanten_TC_020513_DIN_
  6
Continuous
 62
     7
100
AcDbLine
 10
243.315023019611
 20
104.889214046792
 30
0.0
 11
242.615023019611
 21
104.189214046792
 31
0.0
  0
LINE
  5
16B
330
1F
100
AcDbEntity
  8
Sichtbare_Kanten_TC_020513_DIN_
  6
Continuous
 62
     7
100
AcDbLine
 10
237.315023019609
 20
104.089214046792
 30
0.0
 11
242.615023019611
 21
104.089214046792
 31
0.0
  0
LINE
  5
16C
330
1F
100
AcDbEntity
  8
Sichtbare_Kanten_TC_020513_DIN_
  6
Continuous
 62
     7
100
AcDbLine
 10
243.315023019611
 20
103.389214046792
 30
0.0
 11
242.615023019611
 21
104.089214046792
 31
0.0
  0
LINE
  5
16D
330
1F
100
AcDbEntity
  8
Sichtbare_Kanten_TC_020513_DIN_
  6
Continuous
 62
     7
100
AcDbLine
 10
237.315023019609
 20
104.089214046792
 30
0.0
 11
223.315023019609
 21
104.089214046792
 31
0.0
  0
LINE
  5
16E
330
1F
100
AcDbEntity
  8
Sichtbare_Kanten_TC_020513_DIN_
  6
Continuous
 62
     7
100
AcDbLine
 10
242.615023019611
 20
106.589214046792
 30
0.0
 11
242.615023019611
 21
106.689214046792
 31
0.0
  0
LINE
  5
16F
330
1F
100
AcDbEntity
  8
Sichtbare_Kanten_TC_020513_DIN_
  6
Continuous
 62
     7
100
AcDbLine
 10
242.615023019611
 20
109.089214046792
 30
0.0
 11
242.615023019611
 21
109.189214046792
 31
0.0
  0
LINE
  5
170
330
1F
100
AcDbEntity
  8
Sichtbare_Kanten_TC_020513_DIN_
  6
Continuous
 62
     7
100
AcDbLine
 10
242.615023019611
 20
111.589214046792
 30
0.0
 11
242.615023019611
 21
111.689214046792
 31
0.0
  0
LINE
  5
171
330
1F
100
AcDbEntity
  8
Sichtbare_Kanten_TC_020513_DIN_
  6
Continuous
 62
     7
100
AcDbLine
 10
223.315023019609
 20
106.689214046792
 30
0.0
 11
237.315023019609
 21
106.689214046792
 31
0.0
  0
LINE
  5
172
330
1F
100
AcDbEntity
  8
Sichtbare_Kanten_TC_020513_DIN_
  6
Continuous
 62
     7
100
AcDbLine
 10
242.615023019611
 20
106.689214046792
 30
0.0
 11
237.315023019609
 21
106.689214046792
 31
0.0
  0
LINE
  5
173
330
1F
100
AcDbEntity
  8
Sichtbare_Kanten_TC_020513_DIN_
  6
Continuous
 62
     7
100
AcDbLine
 10
243.315023019611
 20
107.389214046792
 30
0.0
 11
242.615023019611
 21
106.689214046792
 31
0.0
  0
LINE
  5
174
330
1F
100
AcDbEntity
  8
Sichtbare_Kanten_TC_020513_DIN_
  6
Continuous
 62
     7
100
AcDbLine
 10
237.315023019609
 20
106.589214046792
 30
0.0
 11
242.615023019611
 21
106.589214046792
 31
0.0
  0
LINE
  5
175
330
1F
100
AcDbEntity
  8
Sichtbare_Kanten_TC_020513_DIN_
  6
Continuous
 62
     7
100
AcDbLine
 10
243.315023019611
 20
105.889214046792
 30
0.0
 11
242.615023019611
 21
106.589214046792
 31
0.0
  0
LINE
  5
176
330
1F
100
AcDbEntity
  8
Sichtbare_Kanten_TC_020513_DIN_
  6
Continuous
 62
     7
100
AcDbLine
 10
237.315023019609
 20
106.589214046792
 30
0.0
 11
223.315023019609
 21
106.589214046792
 31
0.0
  0
LINE
  5
177
330
1F
100
AcDbEntity
  8
Sichtbare_Kanten_TC_020513_DIN_
  6
Continuous
 62
     7
100
AcDbLine
 10
223.315023019609
 20
109.189214046792
 30
0.0
 11
237.315023019609
 21
109.189214046792
 31
0.0
  0
LINE
  5
178
330
1F
100
AcDbEntity
  8
Sichtbare_Kanten_TC_020513_DIN_
  6
Continuous
 62
     7
100
AcDbLine
 10
242.615023019611
 20
109.189214046792
 30
0.0
 11
237.315023019609
 21
109.189214046792
 31
0.0
  0
LINE
  5
179
330
1F
100
AcDbEntity
  8
Sichtbare_Kanten_TC_020513_DIN_
  6
Continuous
 62
     7
100
AcDbLine
 10
243.315023019611
 20
109.889214046792
 30
0.0
 11
242.615023019611
 21
109.189214046792
 31
0.0
  0
LINE
  5
17A
330
1F
100
AcDbEntity
  8
Sichtbare_Kanten_TC_020513_DIN_
  6
Continuous
 62
     7
100
AcDbLine
 10
237.315023019609
 20
109.089214046792
 30
0.0
 11
242.615023019611
 21
109.089214046792
 31
0.0
  0
LINE
  5
17B
330
1F
100
AcDbEntity
  8
Sichtbare_Kanten_TC_020513_DIN_
  6
Continuous
 62
     7
100
AcDbLine
 10
243.315023019611
 20
108.389214046792
 30
0.0
 11
242.615023019611
 21
109.089214046792
 31
0.0
  0
LINE
  5
17C
330
1F
100
AcDbEntity
  8
Sichtbare_Kanten_TC_020513_DIN_
  6
Continuous
 62
     7
100
AcDbLine
 10
237.315023019609
 20
109.089214046792
 30
0.0
 11
223.315023019609
 21
109.089214046792
 31
0.0
  0
LINE
  5
17D
330
1F
100
AcDbEntity
  8
Sichtbare_Kanten_TC_020513_DIN_
  6
Continuous
 62
     7
100
AcDbLine
 10
223.315023019609
 20
111.689214046792
 30
0.0
 11
237.315023019609
 21
111.689214046792
 31
0.0
  0
LINE
  5
17E
330
1F
100
AcDbEntity
  8
Sichtbare_Kanten_TC_020513_DIN_
  6
Continuous
 62
     7
100
AcDbLine
 10
242.615023019611
 20
111.689214046792
 30
0.0
 11
237.315023019609
 21
111.689214046792
 31
0.0
  0
LINE
  5
17F
330
1F
100
AcDbEntity
  8
Sichtbare_Kanten_TC_020513_DIN_
  6
Continuous
 62
     7
100
AcDbLine
 10
243.315023019611
 20
112.389214046792
 30
0.0
 11
242.615023019611
 21
111.689214046792
 31
0.0
  0
LINE
  5
180
330
1F
100
AcDbEntity
  8
Sichtbare_Kanten_TC_020513_DIN_
  6
Continuous
 62
     7
100
AcDbLine
 10
237.315023019609
 20
111.589214046792
 30
0.0
 11
242.615023019611
 21
111.589214046792
 31
0.0
  0
LINE
  5
181
330
1F
100
AcDbEntity
  8
Sichtbare_Kanten_TC_020513_DIN_
  6
Continuous
 62
     7
100
AcDbLine
 10
243.315023019611
 20
110.889214046792
 30
0.0
 11
242.615023019611
 21
111.589214046792
 31
0.0
  0
LINE
  5
182
330
1F
100
AcDbEntity
  8
Sichtbare_Kanten_TC_020513_DIN_
  6
Continuous
 62
     7
100
AcDbLine
 10
237.315023019609
 20
111.589214046792
 30
0.0
 11
223.315023019609
 21
111.589214046792
 31
0.0
  0
LINE
  5
183
330
1F
100
AcDbEntity
  8
Sichtbare_Kanten_TC_020513_DIN_
  6
Continuous
 62
     7
100
AcDbLine
 10
237.315023019613
 20
161.139214046792
 30
0.0
 11
240.815023019614
 21
161.139214046792
 31
0.0
  0
LINE
  5
184
330
1F
100
AcDbEntity
  8
Sichtbare_Kanten_TC_020513_DIN_
  6
Continuous
 62
     7
100
AcDbLine
 10
202.815023019614
 20
161.139214046792
 30
0.0
 11
206.315023019613
 21
161.139214046792
 31
0.0
  0
LINE
  5
185
330
1F
100
AcDbEntity
  8
Sichtbare_Kanten_TC_020513_DIN_
  6
Continuous
 62
     7
100
AcDbLine
 10
200.315023019614
 20
158.639214046792
 30
0.0
 11
200.315023019614
 21
155.139214046792
 31
0.0
  0
LINE
  5
186
330
1F
100
AcDbEntity
  8
Sichtbare_Kanten_TC_020513_DIN_
  6
Continuous
 62
     7
100
AcDbLine
 10
243.315023019614
 20
155.139214046792
 30
0.0
 11
243.315023019614
 21
158.639214046792
 31
0.0
  0
LINE
  5
187
330
1F
100
AcDbEntity
  8
Sichtbare_Kanten_TC_020513_DIN_
  6
Continuous
 62
     7
100
AcDbLine
 10
243.315023019611
 20
91.1392140467917
 30
0.0
 11
237.315023019609
 21
91.1392140467917
 31
0.0
  0
LINE
  5
188
330
1F
100
AcDbEntity
  8
Sichtbare_Kanten_TC_020513_DIN_
  6
Continuous
 62
     7
100
AcDbLine
 10
243.315023019611
 20
91.1392140467917
 30
0.0
 11
243.315023019611
 21
103.389214046792
 31
0.0
  0
LINE
  5
189
330
1F
100
AcDbEntity
  8
Sichtbare_Kanten_TC_020513_DIN_
  6
Continuous
 62
     7
100
AcDbLine
 10
243.315023019611
 20
103.389214046792
 30
0.0
 11
237.315023019609
 21
103.389214046792
 31
0.0
  0
LINE
  5
18A
330
1F
100
AcDbEntity
  8
Sichtbare_Kanten_TC_020513_DIN_
  6
Continuous
 62
     7
100
AcDbLine
 10
237.315023019609
 20
104.889214046792
 30
0.0
 11
243.315023019611
 21
104.889214046792
 31
0.0
  0
LINE
  5
18B
330
1F
100
AcDbEntity
  8
Sichtbare_Kanten_TC_020513_DIN_
  6
Continuous
 62
     7
100
AcDbLine
 10
243.315023019611
 20
104.889214046792
 30
0.0
 11
243.315023019611
 21
105.889214046792
 31
0.0
  0
LINE
  5
18C
330
1F
100
AcDbEntity
  8
Sichtbare_Kanten_TC_020513_DIN_
  6
Continuous
 62
     7
100
AcDbLine
 10
243.315023019611
 20
105.889214046792
 30
0.0
 11
237.315023019609
 21
105.889214046792
 31
0.0
  0
LINE
  5
18D
330
1F
100
AcDbEntity
  8
Sichtbare_Kanten_TC_020513_DIN_
  6
Continuous
 62
     7
100
AcDbLine
 10
237.315023019609
 20
107.389214046792
 30
0.0
 11
243.315023019611
 21
107.389214046792
 31
0.0
  0
LINE
  5
18E
330
1F
100
AcDbEntity
  8
Sichtbare_Kanten_TC_020513_DIN_
  6
Continuous
 62
     7
100
AcDbLine
 10
243.315023019611
 20
107.389214046792
 30
0.0
 11
243.315023019611
 21
108.389214046792
 31
0.0
  0
LINE
  5
18F
330
1F
100
AcDbEntity
  8
Sichtbare_Kanten_TC_020513_DIN_
  6
Continuous
 62
     7
100
AcDbLine
 10
243.315023019611
 20
108.389214046792
 30
0.0
 11
237.315023019609
 21
108.389214046792
 31
0.0
  0
LINE
  5
190
330
1F
100
AcDbEntity
  8
Sichtbare_Kanten_TC_020513_DIN_
  6
Continuous
 62
     7
100
AcDbLine
 10
243.315023019611
 20
114.032576215
 30
0.0
 11
243.315023019611
 21
122.139214046792
 31
0.0
  0
LINE
  5
191
330
1F
100
AcDbEntity
  8
Sichtbare_Kanten_TC_020513_DIN_
  6
Continuous
 62
     7
100
AcDbLine
 10
243.315023019611
 20
112.389214046792
 30
0.0
 11
243.315023019611
 21
114.032576215
 31
0.0
  0
LINE
  5
192
330
1F
100
AcDbEntity
  8
Sichtbare_Kanten_TC_020513_DIN_
  6
Continuous
 62
     7
100
AcDbLine
 10
237.315023019609
 20
112.389214046792
 30
0.0
 11
243.315023019611
 21
112.389214046792
 31
0.0
  0
LINE
  5
193
330
1F
100
AcDbEntity
  8
Sichtbare_Kanten_TC_020513_DIN_
  6
Continuous
 62
     7
100
AcDbLine
 10
237.315023019609
 20
109.889214046792
 30
0.0
 11
243.315023019611
 21
109.889214046792
 31
0.0
  0
LINE
  5
194
330
1F
100
AcDbEntity
  8
Sichtbare_Kanten_TC_020513_DIN_
  6
Continuous
 62
     7
100
AcDbLine
 10
243.315023019611
 20
109.889214046792
 30
0.0
 11
243.315023019611
 21
110.889214046792
 31
0.0
  0
LINE
  5
195
330
1F
100
AcDbEntity
  8
Sichtbare_Kanten_TC_020513_DIN_
  6
Continuous
 62
     7
100
AcDbLine
 10
243.315023019611
 20
110.889214046792
 30
0.0
 11
237.315023019609
 21
110.889214046792
 31
0.0
  0
LINE
  5
196
330
1F
100
AcDbEntity
  8
Sichtbare_Kanten_TC_020513_DIN_
  6
Continuous
 62
     7
100
AcDbLine
 10
206.315023019609
 20
91.1392140467917
 30
0.0
 11
200.315023019611
 21
91.1392140467917
 31
0.0
  0
LINE
  5
197
330
1F
100
AcDbEntity
  8
Sichtbare_Kanten_TC_020513_DIN_
  6
Continuous
 62
     7
100
AcDbLine
 10
200.315023019611
 20
103.389214046792
 30
0.0
 11
200.315023019611
 21
91.1392140467917
 31
0.0
  0
LINE
  5
198
330
1F
100
AcDbEntity
  8
Sichtbare_Kanten_TC_020513_DIN_
  6
Continuous
 62
     7
100
AcDbLine
 10
206.315023019609
 20
103.389214046792
 30
0.0
 11
200.315023019611
 21
103.389214046792
 31
0.0
  0
LINE
  5
199
330
1F
100
AcDbEntity
  8
Sichtbare_Kanten_TC_020513_DIN_
  6
Continuous
 62
     7
100
AcDbLine
 10
200.315023019611
 20
122.139214046792
 30
0.0
 11
200.315023019611
 21
114.032576215
 31
0.0
  0
LINE
  5
19A
330
1F
100
AcDbEntity
  8
Sichtbare_Kanten_TC_020513_DIN_
  6
Continuous
 62
     7
100
AcDbLine
 10
200.315023019611
 20
110.889214046792
 30
0.0
 11
200.315023019611
 21
109.889214046792
 31
0.0
  0
LINE
  5
19B
330
1F
100
AcDbEntity
  8
Sichtbare_Kanten_TC_020513_DIN_
  6
Continuous
 62
     7
100
AcDbLine
 10
200.315023019611
 20
114.032576215
 30
0.0
 11
200.315023019611
 21
112.389214046792
 31
0.0
  0
LINE
  5
19C
330
1F
100
AcDbEntity
  8
Sichtbare_Kanten_TC_020513_DIN_
  6
Continuous
 62
     7
100
AcDbLine
 10
200.315023019611
 20
108.389214046792
 30
0.0
 11
200.315023019611
 21
107.389214046792
 31
0.0
  0
LINE
  5
19D
330
1F
100
AcDbEntity
  8
Sichtbare_Kanten_TC_020513_DIN_
  6
Continuous
 62
     7
100
AcDbLine
 10
200.315023019611
 20
107.389214046792
 30
0.0
 11
206.315023019609
 21
107.389214046792
 31
0.0
  0
LINE
  5
19E
330
1F
100
AcDbEntity
  8
Sichtbare_Kanten_TC_020513_DIN_
  6
Continuous
 62
     7
100
AcDbLine
 10
200.315023019611
 20
104.889214046792
 30
0.0
 11
206.315023019609
 21
104.889214046792
 31
0.0
  0
LINE
  5
19F
330
1F
100
AcDbEntity
  8
Sichtbare_Kanten_TC_020513_DIN_
  6
Continuous
 62
     7
100
AcDbLine
 10
200.315023019611
 20
105.889214046792
 30
0.0
 11
200.315023019611
 21
104.889214046792
 31
0.0
  0
LINE
  5
1A0
330
1F
100
AcDbEntity
  8
Sichtbare_Kanten_TC_020513_DIN_
  6
Continuous
 62
     7
100
AcDbLine
 10
206.315023019609
 20
105.889214046792
 30
0.0
 11
200.315023019611
 21
105.889214046792
 31
0.0
  0
LINE
  5
1A1
330
1F
100
AcDbEntity
  8
Sichtbare_Kanten_TC_020513_DIN_
  6
Continuous
 62
     7
100
AcDbLine
 10
200.315023019611
 20
109.889214046792
 30
0.0
 11
206.315023019609
 21
109.889214046792
 31
0.0
  0
LINE
  5
1A2
330
1F
100
AcDbEntity
  8
Sichtbare_Kanten_TC_020513_DIN_
  6
Continuous
 62
     7
100
AcDbLine
 10
206.315023019609
 20
108.389214046792
 30
0.0
 11
200.315023019611
 21
108.389214046792
 31
0.0
  0
LINE
  5
1A3
330
1F
100
AcDbEntity
  8
Sichtbare_Kanten_TC_020513_DIN_
  6
Continuous
 62
     7
100
AcDbLine
 10
200.315023019611
 20
112.389214046792
 30
0.0
 11
206.315023019609
 21
112.389214046792
 31
0.0
  0
LINE
  5
1A4
330
1F
100
AcDbEntity
  8
Sichtbare_Kanten_TC_020513_DIN_
  6
Continuous
 62
     7
100
AcDbLine
 10
206.315023019609
 20
110.889214046792
 30
0.0
 11
200.315023019611
 21
110.889214046792
 31
0.0
  0
LINE
  5
1A5
330
1F
100
AcDbEntity
  8
Sichtbare_Kanten_TC_020513_DIN_
  6
Continuous
 62
     7
100
AcDbLine
 10
201.015023019611
 20
104.089214046792
 30
0.0
 11
201.015023019611
 21
104.189214046792
 31
0.0
  0
LINE
  5
1A6
330
1F
100
AcDbEntity
  8
Sichtbare_Kanten_TC_020513_DIN_
  6
Continuous
 62
     7
100
AcDbLine
 10
220.315023019609
 20
104.189214046792
 30
0.0
 11
206.315023019609
 21
104.189214046792
 31
0.0
  0
LINE
  5
1A7
330
1F
100
AcDbEntity
  8
Sichtbare_Kanten_TC_020513_DIN_
  6
Continuous
 62
     7
100
AcDbLine
 10
201.015023019611
 20
104.189214046792
 30
0.0
 11
206.315023019609
 21
104.189214046792
 31
0.0
  0
LINE
  5
1A8
330
1F
100
AcDbEntity
  8
Sichtbare_Kanten_TC_020513_DIN_
  6
Continuous
 62
     7
100
AcDbLine
 10
201.015023019611
 20
104.189214046792
 30
0.0
 11
200.315023019611
 21
104.889214046792
 31
0.0
  0
LINE
  5
1A9
330
1F
100
AcDbEntity
  8
Sichtbare_Kanten_TC_020513_DIN_
  6
Continuous
 62
     7
100
AcDbLine
 10
206.315023019609
 20
104.089214046792
 30
0.0
 11
220.315023019609
 21
104.089214046792
 31
0.0
  0
LINE
  5
1AA
330
1F
100
AcDbEntity
  8
Sichtbare_Kanten_TC_020513_DIN_
  6
Continuous
 62
     7
100
AcDbLine
 10
206.315023019609
 20
104.089214046792
 30
0.0
 11
201.015023019611
 21
104.089214046792
 31
0.0
  0
LINE
  5
1AB
330
1F
100
AcDbEntity
  8
Sichtbare_Kanten_TC_020513_DIN_
  6
Continuous
 62
     7
100
AcDbLine
 10
200.315023019611
 20
103.389214046792
 30
0.0
 11
201.015023019611
 21
104.089214046792
 31
0.0
  0
LINE
  5
1AC
330
1F
100
AcDbEntity
  8
Sichtbare_Kanten_TC_020513_DIN_
  6
Continuous
 62
     7
100
AcDbLine
 10
201.015023019611
 20
106.589214046792
 30
0.0
 11
201.015023019611
 21
106.689214046792
 31
0.0
  0
LINE
  5
1AD
330
1F
100
AcDbEntity
  8
Sichtbare_Kanten_TC_020513_DIN_
  6
Continuous
 62
     7
100
AcDbLine
 10
201.015023019611
 20
109.089214046792
 30
0.0
 11
201.015023019611
 21
109.189214046792
 31
0.0
  0
LINE
  5
1AE
330
1F
100
AcDbEntity
  8
Sichtbare_Kanten_TC_020513_DIN_
  6
Continuous
 62
     7
100
AcDbLine
 10
201.015023019611
 20
111.589214046792
 30
0.0
 11
201.015023019611
 21
111.689214046792
 31
0.0
  0
LINE
  5
1AF
330
1F
100
AcDbEntity
  8
Sichtbare_Kanten_TC_020513_DIN_
  6
Continuous
 62
     7
100
AcDbLine
 10
220.315023019609
 20
106.689214046792
 30
0.0
 11
206.315023019609
 21
106.689214046792
 31
0.0
  0
LINE
  5
1B0
330
1F
100
AcDbEntity
  8
Sichtbare_Kanten_TC_020513_DIN_
  6
Continuous
 62
     7
100
AcDbLine
 10
201.015023019611
 20
106.689214046792
 30
0.0
 11
206.315023019609
 21
106.689214046792
 31
0.0
  0
LINE
  5
1B1
330
1F
100
AcDbEntity
  8
Sichtbare_Kanten_TC_020513_DIN_
  6
Continuous
 62
     7
100
AcDbLine
 10
201.015023019611
 20
106.689214046792
 30
0.0
 11
200.315023019611
 21
107.389214046792
 31
0.0
  0
LINE
  5
1B2
330
1F
100
AcDbEntity
  8
Sichtbare_Kanten_TC_020513_DIN_
  6
Continuous
 62
     7
100
AcDbLine
 10
206.315023019609
 20
106.589214046792
 30
0.0
 11
220.315023019609
 21
106.589214046792
 31
0.0
  0
LINE
  5
1B3
330
1F
100
AcDbEntity
  8
Sichtbare_Kanten_TC_020513_DIN_
  6
Continuous
 62
     7
100
AcDbLine
 10
201.015023019611
 20
106.589214046792
 30
0.0
 11
200.315023019611
 21
105.889214046792
 31
0.0
  0
LINE
  5
1B4
330
1F
100
AcDbEntity
  8
Sichtbare_Kanten_TC_020513_DIN_
  6
Continuous
 62
     7
100
AcDbLine
 10
206.315023019609
 20
106.589214046792
 30
0.0
 11
201.015023019611
 21
106.589214046792
 31
0.0
  0
LINE
  5
1B5
330
1F
100
AcDbEntity
  8
Sichtbare_Kanten_TC_020513_DIN_
  6
Continuous
 62
     7
100
AcDbLine
 10
220.315023019609
 20
109.189214046792
 30
0.0
 11
206.315023019609
 21
109.189214046792
 31
0.0
  0
LINE
  5
1B6
330
1F
100
AcDbEntity
  8
Sichtbare_Kanten_TC_020513_DIN_
  6
Continuous
 62
     7
100
AcDbLine
 10
201.015023019611
 20
109.189214046792
 30
0.0
 11
206.315023019609
 21
109.189214046792
 31
0.0
  0
LINE
  5
1B7
330
1F
100
AcDbEntity
  8
Sichtbare_Kanten_TC_020513_DIN_
  6
Continuous
 62
     7
100
AcDbLine
 10
201.015023019611
 20
109.189214046792
 30
0.0
 11
200.315023019611
 21
109.889214046792
 31
0.0
  0
LINE
  5
1B8
330
1F
100
AcDbEntity
  8
Sichtbare_Kanten_TC_020513_DIN_
  6
Continuous
 62
     7
100
AcDbLine
 10
201.015023019611
 20
109.089214046792
 30
0.0
 11
200.315023019611
 21
108.389214046792
 31
0.0
  0
LINE
  5
1B9
330
1F
100
AcDbEntity
  8
Sichtbare_Kanten_TC_020513_DIN_
  6
Continuous
 62
     7
100
AcDbLine
 10
206.315023019609
 20
109.089214046792
 30
0.0
 11
201.015023019611
 21
109.089214046792
 31
0.0
  0
LINE
  5
1BA
330
1F
100
AcDbEntity
  8
Sichtbare_Kanten_TC_020513_DIN_
  6
Continuous
 62
     7
100
AcDbLine
 10
206.315023019609
 20
109.089214046792
 30
0.0
 11
220.315023019609
 21
109.089214046792
 31
0.0
  0
LINE
  5
1BB
330
1F
100
AcDbEntity
  8
Sichtbare_Kanten_TC_020513_DIN_
  6
Continuous
 62
     7
100
AcDbLine
 10
220.315023019609
 20
111.689214046792
 30
0.0
 11
206.315023019609
 21
111.689214046792
 31
0.0
  0
LINE
  5
1BC
330
1F
100
AcDbEntity
  8
Sichtbare_Kanten_TC_020513_DIN_
  6
Continuous
 62
     7
100
AcDbLine
 10
201.015023019611
 20
111.689214046792
 30
0.0
 11
206.315023019609
 21
111.689214046792
 31
0.0
  0
LINE
  5
1BD
330
1F
100
AcDbEntity
  8
Sichtbare_Kanten_TC_020513_DIN_
  6
Continuous
 62
     7
100
AcDbLine
 10
201.015023019611
 20
111.689214046792
 30
0.0
 11
200.315023019611
 21
112.389214046792
 31
0.0
  0
LINE
  5
1BE
330
1F
100
AcDbEntity
  8
Sichtbare_Kanten_TC_020513_DIN_
  6
Continuous
 62
     7
100
AcDbLine
 10
201.015023019611
 20
111.589214046792
 30
0.0
 11
200.315023019611
 21
110.889214046792
 31
0.0
  0
LINE
  5
1BF
330
1F
100
AcDbEntity
  8
Sichtbare_Kanten_TC_020513_DIN_
  6
Continuous
 62
     7
100
AcDbLine
 10
206.315023019609
 20
111.589214046792
 30
0.0
 11
201.015023019611
 21
111.589214046792
 31
0.0
  0
LINE
  5
1C0
330
1F
100
AcDbEntity
  8
Sichtbare_Kanten_TC_020513_DIN_
  6
Continuous
 62
     7
100
AcDbLine
 10
206.315023019609
 20
111.589214046792
 30
0.0
 11
220.315023019609
 21
111.589214046792
 31
0.0
  0
LINE
  5
1C1
330
1F
100
AcDbEntity
  8
Sichtbare_Kanten_TC_020513_DIN_
  6
Continuous
 62
     7
100
AcDbLine
 10
220.315023019609
 20
110.889214046792
 30
0.0
 11
220.315023019609
 21
112.389214046792
 31
0.0
  0
LINE
  5
1C2
330
1F
100
AcDbEntity
  8
Sichtbare_Kanten_TC_020513_DIN_
  6
Continuous
 62
     7
100
AcDbLine
 10
237.315023019609
 20
112.389214046792
 30
0.0
 11
223.315023019609
 21
112.389214046792
 31
0.0
  0
LINE
  5
1C3
330
1F
100
AcDbEntity
  8
Sichtbare_Kanten_TC_020513_DIN_
  6
Continuous
 62
     7
100
AcDbLine
 10
223.315023019609
 20
112.389214046792
 30
0.0
 11
223.315023019609
 21
110.889214046792
 31
0.0
  0
LINE
  5
1C4
330
1F
100
AcDbEntity
  8
Sichtbare_Kanten_TC_020513_DIN_
  6
Continuous
 62
     7
100
AcDbLine
 10
223.315023019609
 20
110.889214046792
 30
0.0
 11
237.315023019609
 21
110.889214046792
 31
0.0
  0
LINE
  5
1C5
330
1F
100
AcDbEntity
  8
Sichtbare_Kanten_TC_020513_DIN_
  6
Continuous
 62
     7
100
AcDbLine
 10
237.315023019609
 20
109.889214046792
 30
0.0
 11
223.315023019609
 21
109.889214046792
 31
0.0
  0
LINE
  5
1C6
330
1F
100
AcDbEntity
  8
Sichtbare_Kanten_TC_020513_DIN_
  6
Continuous
 62
     7
100
AcDbLine
 10
223.315023019609
 20
109.889214046792
 30
0.0
 11
223.315023019609
 21
108.389214046792
 31
0.0
  0
LINE
  5
1C7
330
1F
100
AcDbEntity
  8
Sichtbare_Kanten_TC_020513_DIN_
  6
Continuous
 62
     7
100
AcDbLine
 10
223.315023019609
 20
108.389214046792
 30
0.0
 11
237.315023019609
 21
108.389214046792
 31
0.0
  0
LINE
  5
1C8
330
1F
100
AcDbEntity
  8
Sichtbare_Kanten_TC_020513_DIN_
  6
Continuous
 62
     7
100
AcDbLine
 10
237.315023019609
 20
107.389214046792
 30
0.0
 11
223.315023019609
 21
107.389214046792
 31
0.0
  0
LINE
  5
1C9
330
1F
100
AcDbEntity
  8
Sichtbare_Kanten_TC_020513_DIN_
  6
Continuous
 62
     7
100
AcDbLine
 10
223.315023019609
 20
107.389214046792
 30
0.0
 11
223.315023019609
 21
105.889214046792
 31
0.0
  0
LINE
  5
1CA
330
1F
100
AcDbEntity
  8
Sichtbare_Kanten_TC_020513_DIN_
  6
Continuous
 62
     7
100
AcDbLine
 10
223.315023019609
 20
105.889214046792
 30
0.0
 11
237.315023019609
 21
105.889214046792
 31
0.0
  0
LINE
  5
1CB
330
1F
100
AcDbEntity
  8
Sichtbare_Kanten_TC_020513_DIN_
  6
Continuous
 62
     7
100
AcDbLine
 10
237.315023019609
 20
104.889214046792
 30
0.0
 11
223.315023019609
 21
104.889214046792
 31
0.0
  0
LINE
  5
1CC
330
1F
100
AcDbEntity
  8
Sichtbare_Kanten_TC_020513_DIN_
  6
Continuous
 62
     7
100
AcDbLine
 10
223.315023019609
 20
104.889214046792
 30
0.0
 11
223.315023019609
 21
103.389214046792
 31
0.0
  0
LINE
  5
1CD
330
1F
100
AcDbEntity
  8
Sichtbare_Kanten_TC_020513_DIN_
  6
Continuous
 62
     7
100
AcDbLine
 10
223.315023019609
 20
103.389214046792
 30
0.0
 11
237.315023019609
 21
103.389214046792
 31
0.0
  0
LINE
  5
1CE
330
1F
100
AcDbEntity
  8
Sichtbare_Kanten_TC_020513_DIN_
  6
Continuous
 62
     7
100
AcDbLine
 10
237.315023019609
 20
91.1392140467917
 30
0.0
 11
206.315023019609
 21
91.1392140467917
 31
0.0
  0
LINE
  5
1CF
330
1F
100
AcDbEntity
  8
Sichtbare_Kanten_TC_020513_DIN_
  6
Continuous
 62
     7
100
AcDbLine
 10
206.315023019609
 20
103.389214046792
 30
0.0
 11
220.315023019609
 21
103.389214046792
 31
0.0
  0
LINE
  5
1D0
330
1F
100
AcDbEntity
  8
Sichtbare_Kanten_TC_020513_DIN_
  6
Continuous
 62
     7
100
AcDbLine
 10
220.315023019609
 20
103.389214046792
 30
0.0
 11
220.315023019609
 21
104.889214046792
 31
0.0
  0
LINE
  5
1D1
330
1F
100
AcDbEntity
  8
Sichtbare_Kanten_TC_020513_DIN_
  6
Continuous
 62
     7
100
AcDbLine
 10
220.315023019609
 20
104.889214046792
 30
0.0
 11
206.315023019609
 21
104.889214046792
 31
0.0
  0
LINE
  5
1D2
330
1F
100
AcDbEntity
  8
Sichtbare_Kanten_TC_020513_DIN_
  6
Continuous
 62
     7
100
AcDbLine
 10
220.315023019609
 20
105.889214046792
 30
0.0
 11
220.315023019609
 21
107.389214046792
 31
0.0
  0
LINE
  5
1D3
330
1F
100
AcDbEntity
  8
Sichtbare_Kanten_TC_020513_DIN_
  6
Continuous
 62
     7
100
AcDbLine
 10
220.315023019609
 20
107.389214046792
 30
0.0
 11
206.315023019609
 21
107.389214046792
 31
0.0
  0
LINE
  5
1D4
330
1F
100
AcDbEntity
  8
Sichtbare_Kanten_TC_020513_DIN_
  6
Continuous
 62
     7
100
AcDbLine
 10
220.315023019609
 20
108.389214046792
 30
0.0
 11
220.315023019609
 21
109.889214046792
 31
0.0
  0
LINE
  5
1D5
330
1F
100
AcDbEntity
  8
Sichtbare_Kanten_TC_020513_DIN_
  6
Continuous
 62
     7
100
AcDbLine
 10
206.315023019609
 20
105.889214046792
 30
0.0
 11
220.315023019609
 21
105.889214046792
 31
0.0
  0
LINE
  5
1D6
330
1F
100
AcDbEntity
  8
Sichtbare_Kanten_TC_020513_DIN_
  6
Continuous
 62
     7
100
AcDbLine
 10
220.315023019609
 20
109.889214046792
 30
0.0
 11
206.315023019609
 21
109.889214046792
 31
0.0
  0
LINE
  5
1D7
330
1F
100
AcDbEntity
  8
Sichtbare_Kanten_TC_020513_DIN_
  6
Continuous
 62
     7
100
AcDbLine
 10
206.315023019609
 20
108.389214046792
 30
0.0
 11
220.315023019609
 21
108.389214046792
 31
0.0
  0
LINE
  5
1D8
330
1F
100
AcDbEntity
  8
Sichtbare_Kanten_TC_020513_DIN_
  6
Continuous
 62
     7
100
AcDbLine
 10
220.315023019609
 20
112.389214046792
 30
0.0
 11
206.315023019609
 21
112.389214046792
 31
0.0
  0
LINE
  5
1D9
330
1F
100
AcDbEntity
  8
Sichtbare_Kanten_TC_020513_DIN_
  6
Continuous
 62
     7
100
AcDbLine
 10
206.315023019609
 20
110.889214046792
 30
0.0
 11
220.315023019609
 21
110.889214046792
 31
0.0
  0
LINE
  5
1DA
330
1F
100
AcDbEntity
  8
Sichtbare_Kanten_TC_020513_DIN_
  6
Continuous
 62
     7
100
AcDbLine
 10
244.815023019616
 20
101.139214046792
 30
0.0
 11
243.315023019616
 21
102.639214046792
 31
0.0
  0
LINE
  5
1DB
330
1F
100
AcDbEntity
  8
Sichtbare_Kanten_TC_020513_DIN_
  6
Continuous
 62
     7
100
AcDbLine
 10
244.815023019616
 20
96.1392140467917
 30
0.0
 11
243.315023019616
 21
94.6392140467917
 31
0.0
  0
LINE
  5
1DC
330
1F
100
AcDbEntity
  8
Sichtbare_Kanten_TC_020513_DIN_
  6
Continuous
 62
     7
100
AcDbLine
 10
250.315023019616
 20
101.139214046792
 30
0.0
 11
244.815023019616
 21
101.139214046792
 31
0.0
  0
LINE
  5
1DD
330
1F
100
AcDbEntity
  8
Sichtbare_Kanten_TC_020513_DIN_
  6
Continuous
 62
     7
100
AcDbLine
 10
250.315023019616
 20
96.1392140467917
 30
0.0
 11
244.815023019616
 21
96.1392140467917
 31
0.0
  0
LINE
  5
1DE
330
1F
100
AcDbEntity
  8
Sichtbare_Kanten_TC_020513_DIN_
  6
Continuous
 62
     7
100
AcDbLine
 10
244.815023019616
 20
101.139214046792
 30
0.0
 11
244.815023019616
 21
96.1392140467917
 31
0.0
  0
LINE
  5
1DF
330
1F
100
AcDbEntity
  8
Sichtbare_Kanten_TC_020513_DIN_
  6
Continuous
 62
     7
100
AcDbLine
 10
250.315023019616
 20
101.139214046792
 30
0.0
 11
250.315023019616
 21
96.1392140467917
 31
0.0
  0
LINE
  5
1E0
330
1F
100
AcDbEntity
  8
Sichtbare_Kanten_TC_020513_DIN_
  6
Continuous
 62
     7
100
AcDbLine
 10
198.815023019616
 20
96.1392140467917
 30
0.0
 11
200.315023019616
 21
94.6392140467917
 31
0.0
  0
LINE
  5
1E1
330
1F
100
AcDbEntity
  8
Sichtbare_Kanten_TC_020513_DIN_
  6
Continuous
 62
     7
100
AcDbLine
 10
198.815023019616
 20
101.139214046792
 30
0.0
 11
200.315023019616
 21
102.639214046792
 31
0.0
  0
LINE
  5
1E2
330
1F
100
AcDbEntity
  8
Sichtbare_Kanten_TC_020513_DIN_
  6
Continuous
 62
     7
100
AcDbLine
 10
198.815023019616
 20
101.139214046792
 30
0.0
 11
193.315023019616
 21
101.139214046792
 31
0.0
  0
LINE
  5
1E3
330
1F
100
AcDbEntity
  8
Sichtbare_Kanten_TC_020513_DIN_
  6
Continuous
 62
     7
100
AcDbLine
 10
198.815023019616
 20
96.1392140467917
 30
0.0
 11
193.315023019616
 21
96.1392140467917
 31
0.0
  0
LINE
  5
1E4
330
1F
100
AcDbEntity
  8
Sichtbare_Kanten_TC_020513_DIN_
  6
Continuous
 62
     7
100
AcDbLine
 10
198.815023019616
 20
101.139214046792
 30
0.0
 11
198.815023019616
 21
96.1392140467917
 31
0.0
  0
LINE
  5
1E5
330
1F
100
AcDbEntity
  8
Sichtbare_Kanten_TC_020513_DIN_
  6
Continuous
 62
     7
100
AcDbLine
 10
193.315023019616
 20
101.139214046792
 30
0.0
 11
193.315023019616
 21
96.1392140467917
 31
0.0
  0
LINE
  5
1E6
330
1F
100
AcDbEntity
  8
Sichtbare_Kanten_TC_020513_DIN_
  6
Continuous
 62
     7
100
AcDbLine
 10
200.315023019611
 20
122.139214046792
 30
0.0
 11
201.31502301961
 21
123.139214046792
 31
0.0
  0
LINE
  5
1E7
330
1F
100
AcDbEntity
  8
Sichtbare_Kanten_TC_020513_DIN_
  6
Continuous
 62
     7
100
AcDbLine
 10
201.315023019612
 20
154.139214046792
 30
0.0
 11
200.315023019614
 21
155.139214046792
 31
0.0
  0
LINE
  5
1E8
330
1F
100
AcDbEntity
  8
Sichtbare_Kanten_TC_020513_DIN_
  6
Continuous
 62
     7
100
AcDbLine
 10
201.315023019612
 20
154.139214046792
 30
0.0
 11
201.31502301961
 21
123.139214046792
 31
0.0
  0
LINE
  5
1E9
330
1F
100
AcDbEntity
  8
Sichtbare_Kanten_TC_020513_DIN_
  6
Continuous
 62
     7
100
AcDbLine
 10
243.315023019614
 20
155.139214046792
 30
0.0
 11
242.315023019612
 21
154.139214046792
 31
0.0
  0
LINE
  5
1EA
330
1F
100
AcDbEntity
  8
Sichtbare_Kanten_TC_020513_DIN_
  6
Continuous
 62
     7
100
AcDbLine
 10
242.31502301961
 20
123.139214046792
 30
0.0
 11
243.315023019611
 21
122.139214046792
 31
0.0
  0
LINE
  5
1EB
330
1F
100
AcDbEntity
  8
Sichtbare_Kanten_TC_020513_DIN_
  6
Continuous
 62
     7
100
AcDbLine
 10
242.31502301961
 20
123.139214046792
 30
0.0
 11
242.315023019612
 21
154.139214046792
 31
0.0
  0
LINE
  5
1EC
330
1F
100
AcDbEntity
  8
Sichtbare_Kanten_TC_020513_DIN_
  6
Continuous
 62
     7
100
AcDbLine
 10
200.315023019633
 20
143.243873595511
 30
0.0
 11
200.315023019629
 21
140.241377408697
 31
0.0
  0
LINE
  5
1ED
330
1F
100
AcDbEntity
  8
Sichtbare_Kanten_TC_020513_DIN_
  6
Continuous
 62
     7
100
AcDbLine
 10
243.315023019633
 20
143.243873595511
 30
0.0
 11
243.315023019629
 21
140.241377408697
 31
0.0
  0
LINE
  5
1EE
330
1F
100
AcDbEntity
  8
Sichtbare_Kanten_TC_020513_DIN_
  6
Continuous
 62
     7
100
AcDbLine
 10
111.499591073916
 20
161.139214046792
 30
0.0
 11
68.7259592202399
 21
161.139214046792
 31
0.0
  0
LINE
  5
1EF
330
1F
100
AcDbEntity
  8
Sichtbare_Kanten_TC_020513_DIN_
  6
Continuous
 62
     7
100
AcDbLine
 10
54.3127751470781
 20
104.089214046792
 30
0.0
 11
54.3127751470781
 21
104.189214046792
 31
0.0
  0
LINE
  5
1F0
330
1F
100
AcDbEntity
  8
Sichtbare_Kanten_TC_020513_DIN_
  6
Continuous
 62
     7
100
AcDbLine
 10
125.912775147078
 20
104.089214046792
 30
0.0
 11
125.912775147078
 21
104.189214046792
 31
0.0
  0
LINE
  5
1F1
330
1F
100
AcDbEntity
  8
Sichtbare_Kanten_TC_020513_DIN_
  6
Continuous
 62
     7
100
AcDbLine
 10
125.912775147078
 20
104.189214046792
 30
0.0
 11
126.612775147078
 21
104.889214046792
 31
0.0
  0
LINE
  5
1F2
330
1F
100
AcDbEntity
  8
Sichtbare_Kanten_TC_020513_DIN_
  6
Continuous
 62
     7
100
AcDbLine
 10
125.912775147078
 20
104.189214046792
 30
0.0
 11
120.612775147078
 21
104.189214046792
 31
0.0
  0
LINE
  5
1F3
330
1F
100
AcDbEntity
  8
Sichtbare_Kanten_TC_020513_DIN_
  6
Continuous
 62
     7
100
AcDbLine
 10
59.6127751470782
 20
104.189214046792
 30
0.0
 11
54.3127751470781
 21
104.189214046792
 31
0.0
  0
LINE
  5
1F4
330
1F
100
AcDbEntity
  8
Sichtbare_Kanten_TC_020513_DIN_
  6
Continuous
 62
     7
100
AcDbLine
 10
53.6127751470782
 20
104.889214046792
 30
0.0
 11
54.3127751470781
 21
104.189214046792
 31
0.0
  0
LINE
  5
1F5
330
1F
100
AcDbEntity
  8
Sichtbare_Kanten_TC_020513_DIN_
  6
Continuous
 62
     7
100
AcDbLine
 10
59.6127751470782
 20
104.189214046792
 30
0.0
 11
120.612775147078
 21
104.189214046792
 31
0.0
  0
LINE
  5
1F6
330
1F
100
AcDbEntity
  8
Sichtbare_Kanten_TC_020513_DIN_
  6
Continuous
 62
     7
100
AcDbLine
 10
120.612775147078
 20
104.089214046792
 30
0.0
 11
125.912775147078
 21
104.089214046792
 31
0.0
  0
LINE
  5
1F7
330
1F
100
AcDbEntity
  8
Sichtbare_Kanten_TC_020513_DIN_
  6
Continuous
 62
     7
100
AcDbLine
 10
126.612775147078
 20
103.389214046792
 30
0.0
 11
125.912775147078
 21
104.089214046792
 31
0.0
  0
LINE
  5
1F8
330
1F
100
AcDbEntity
  8
Sichtbare_Kanten_TC_020513_DIN_
  6
Continuous
 62
     7
100
AcDbLine
 10
120.612775147078
 20
104.089214046792
 30
0.0
 11
59.6127751470782
 21
104.089214046792
 31
0.0
  0
LINE
  5
1F9
330
1F
100
AcDbEntity
  8
Sichtbare_Kanten_TC_020513_DIN_
  6
Continuous
 62
     7
100
AcDbLine
 10
54.3127751470781
 20
104.089214046792
 30
0.0
 11
59.6127751470782
 21
104.089214046792
 31
0.0
  0
LINE
  5
1FA
330
1F
100
AcDbEntity
  8
Sichtbare_Kanten_TC_020513_DIN_
  6
Continuous
 62
     7
100
AcDbLine
 10
53.6127751470782
 20
103.389214046792
 30
0.0
 11
54.3127751470781
 21
104.089214046792
 31
0.0
  0
LINE
  5
1FB
330
1F
100
AcDbEntity
  8
Sichtbare_Kanten_TC_020513_DIN_
  6
Continuous
 62
     7
100
AcDbLine
 10
54.3127751470781
 20
106.589214046792
 30
0.0
 11
54.3127751470781
 21
106.689214046792
 31
0.0
  0
LINE
  5
1FC
330
1F
100
AcDbEntity
  8
Sichtbare_Kanten_TC_020513_DIN_
  6
Continuous
 62
     7
100
AcDbLine
 10
125.912775147078
 20
106.589214046792
 30
0.0
 11
125.912775147078
 21
106.689214046792
 31
0.0
  0
LINE
  5
1FD
330
1F
100
AcDbEntity
  8
Sichtbare_Kanten_TC_020513_DIN_
  6
Continuous
 62
     7
100
AcDbLine
 10
54.3127751470781
 20
109.089214046792
 30
0.0
 11
54.3127751470781
 21
109.189214046792
 31
0.0
  0
LINE
  5
1FE
330
1F
100
AcDbEntity
  8
Sichtbare_Kanten_TC_020513_DIN_
  6
Continuous
 62
     7
100
AcDbLine
 10
125.912775147078
 20
109.089214046792
 30
0.0
 11
125.912775147078
 21
109.189214046792
 31
0.0
  0
LINE
  5
1FF
330
1F
100
AcDbEntity
  8
Sichtbare_Kanten_TC_020513_DIN_
  6
Continuous
 62
     7
100
AcDbLine
 10
54.3127751470781
 20
111.589214046792
 30
0.0
 11
54.3127751470781
 21
111.689214046792
 31
0.0
  0
LINE
  5
200
330
1F
100
AcDbEntity
  8
Sichtbare_Kanten_TC_020513_DIN_
  6
Continuous
 62
     7
100
AcDbLine
 10
125.912775147078
 20
111.589214046792
 30
0.0
 11
125.912775147078
 21
111.689214046792
 31
0.0
  0
LINE
  5
201
330
1F
100
AcDbEntity
  8
Sichtbare_Kanten_TC_020513_DIN_
  6
Continuous
 62
     7
100
AcDbLine
 10
125.912775147078
 20
106.689214046792
 30
0.0
 11
126.612775147078
 21
107.389214046792
 31
0.0
  0
LINE
  5
202
330
1F
100
AcDbEntity
  8
Sichtbare_Kanten_TC_020513_DIN_
  6
Continuous
 62
     7
100
AcDbLine
 10
125.912775147078
 20
106.689214046792
 30
0.0
 11
120.612775147078
 21
106.689214046792
 31
0.0
  0
LINE
  5
203
330
1F
100
AcDbEntity
  8
Sichtbare_Kanten_TC_020513_DIN_
  6
Continuous
 62
     7
100
AcDbLine
 10
59.6127751470782
 20
106.689214046792
 30
0.0
 11
54.3127751470781
 21
106.689214046792
 31
0.0
  0
LINE
  5
204
330
1F
100
AcDbEntity
  8
Sichtbare_Kanten_TC_020513_DIN_
  6
Continuous
 62
     7
100
AcDbLine
 10
53.6127751470782
 20
107.389214046792
 30
0.0
 11
54.3127751470781
 21
106.689214046792
 31
0.0
  0
LINE
  5
205
330
1F
100
AcDbEntity
  8
Sichtbare_Kanten_TC_020513_DIN_
  6
Continuous
 62
     7
100
AcDbLine
 10
59.6127751470782
 20
106.689214046792
 30
0.0
 11
120.612775147078
 21
106.689214046792
 31
0.0
  0
LINE
  5
206
330
1F
100
AcDbEntity
  8
Sichtbare_Kanten_TC_020513_DIN_
  6
Continuous
 62
     7
100
AcDbLine
 10
120.612775147078
 20
106.589214046792
 30
0.0
 11
125.912775147078
 21
106.589214046792
 31
0.0
  0
LINE
  5
207
330
1F
100
AcDbEntity
  8
Sichtbare_Kanten_TC_020513_DIN_
  6
Continuous
 62
     7
100
AcDbLine
 10
126.612775147078
 20
105.889214046792
 30
0.0
 11
125.912775147078
 21
106.589214046792
 31
0.0
  0
LINE
  5
208
330
1F
100
AcDbEntity
  8
Sichtbare_Kanten_TC_020513_DIN_
  6
Continuous
 62
     7
100
AcDbLine
 10
120.612775147078
 20
106.589214046792
 30
0.0
 11
59.6127751470782
 21
106.589214046792
 31
0.0
  0
LINE
  5
209
330
1F
100
AcDbEntity
  8
Sichtbare_Kanten_TC_020513_DIN_
  6
Continuous
 62
     7
100
AcDbLine
 10
54.3127751470781
 20
106.589214046792
 30
0.0
 11
59.6127751470782
 21
106.589214046792
 31
0.0
  0
LINE
  5
20A
330
1F
100
AcDbEntity
  8
Sichtbare_Kanten_TC_020513_DIN_
  6
Continuous
 62
     7
100
AcDbLine
 10
53.6127751470782
 20
105.889214046792
 30
0.0
 11
54.3127751470781
 21
106.589214046792
 31
0.0
  0
LINE
  5
20B
330
1F
100
AcDbEntity
  8
Sichtbare_Kanten_TC_020513_DIN_
  6
Continuous
 62
     7
100
AcDbLine
 10
125.912775147078
 20
109.189214046792
 30
0.0
 11
126.612775147078
 21
109.889214046792
 31
0.0
  0
LINE
  5
20C
330
1F
100
AcDbEntity
  8
Sichtbare_Kanten_TC_020513_DIN_
  6
Continuous
 62
     7
100
AcDbLine
 10
125.912775147078
 20
109.189214046792
 30
0.0
 11
120.612775147078
 21
109.189214046792
 31
0.0
  0
LINE
  5
20D
330
1F
100
AcDbEntity
  8
Sichtbare_Kanten_TC_020513_DIN_
  6
Continuous
 62
     7
100
AcDbLine
 10
59.6127751470782
 20
109.189214046792
 30
0.0
 11
54.3127751470781
 21
109.189214046792
 31
0.0
  0
LINE
  5
20E
330
1F
100
AcDbEntity
  8
Sichtbare_Kanten_TC_020513_DIN_
  6
Continuous
 62
     7
100
AcDbLine
 10
53.6127751470782
 20
109.889214046792
 30
0.0
 11
54.3127751470781
 21
109.189214046792
 31
0.0
  0
LINE
  5
20F
330
1F
100
AcDbEntity
  8
Sichtbare_Kanten_TC_020513_DIN_
  6
Continuous
 62
     7
100
AcDbLine
 10
59.6127751470782
 20
109.189214046792
 30
0.0
 11
120.612775147078
 21
109.189214046792
 31
0.0
  0
LINE
  5
210
330
1F
100
AcDbEntity
  8
Sichtbare_Kanten_TC_020513_DIN_
  6
Continuous
 62
     7
100
AcDbLine
 10
120.612775147078
 20
109.089214046792
 30
0.0
 11
125.912775147078
 21
109.089214046792
 31
0.0
  0
LINE
  5
211
330
1F
100
AcDbEntity
  8
Sichtbare_Kanten_TC_020513_DIN_
  6
Continuous
 62
     7
100
AcDbLine
 10
126.612775147078
 20
108.389214046792
 30
0.0
 11
125.912775147078
 21
109.089214046792
 31
0.0
  0
LINE
  5
212
330
1F
100
AcDbEntity
  8
Sichtbare_Kanten_TC_020513_DIN_
  6
Continuous
 62
     7
100
AcDbLine
 10
120.612775147078
 20
109.089214046792
 30
0.0
 11
59.6127751470782
 21
109.089214046792
 31
0.0
  0
LINE
  5
213
330
1F
100
AcDbEntity
  8
Sichtbare_Kanten_TC_020513_DIN_
  6
Continuous
 62
     7
100
AcDbLine
 10
54.3127751470781
 20
109.089214046792
 30
0.0
 11
59.6127751470782
 21
109.089214046792
 31
0.0
  0
LINE
  5
214
330
1F
100
AcDbEntity
  8
Sichtbare_Kanten_TC_020513_DIN_
  6
Continuous
 62
     7
100
AcDbLine
 10
53.6127751470782
 20
108.389214046792
 30
0.0
 11
54.3127751470781
 21
109.089214046792
 31
0.0
  0
LINE
  5
215
330
1F
100
AcDbEntity
  8
Sichtbare_Kanten_TC_020513_DIN_
  6
Continuous
 62
     7
100
AcDbLine
 10
125.912775147078
 20
111.689214046792
 30
0.0
 11
126.612775147078
 21
112.389214046792
 31
0.0
  0
LINE
  5
216
330
1F
100
AcDbEntity
  8
Sichtbare_Kanten_TC_020513_DIN_
  6
Continuous
 62
     7
100
AcDbLine
 10
125.912775147078
 20
111.689214046792
 30
0.0
 11
120.612775147078
 21
111.689214046792
 31
0.0
  0
LINE
  5
217
330
1F
100
AcDbEntity
  8
Sichtbare_Kanten_TC_020513_DIN_
  6
Continuous
 62
     7
100
AcDbLine
 10
59.6127751470782
 20
111.689214046792
 30
0.0
 11
54.3127751470781
 21
111.689214046792
 31
0.0
  0
LINE
  5
218
330
1F
100
AcDbEntity
  8
Sichtbare_Kanten_TC_020513_DIN_
  6
Continuous
 62
     7
100
AcDbLine
 10
53.6127751470782
 20
112.389214046792
 30
0.0
 11
54.3127751470781
 21
111.689214046792
 31
0.0
  0
LINE
  5
219
330
1F
100
AcDbEntity
  8
Sichtbare_Kanten_TC_020513_DIN_
  6
Continuous
 62
     7
100
AcDbLine
 10
59.6127751470782
 20
111.689214046792
 30
0.0
 11
120.612775147078
 21
111.689214046792
 31
0.0
  0
LINE
  5
21A
330
1F
100
AcDbEntity
  8
Sichtbare_Kanten_TC_020513_DIN_
  6
Continuous
 62
     7
100
AcDbLine
 10
120.612775147078
 20
111.589214046792
 30
0.0
 11
125.912775147078
 21
111.589214046792
 31
0.0
  0
LINE
  5
21B
330
1F
100
AcDbEntity
  8
Sichtbare_Kanten_TC_020513_DIN_
  6
Continuous
 62
     7
100
AcDbLine
 10
126.612775147078
 20
110.889214046792
 30
0.0
 11
125.912775147078
 21
111.589214046792
 31
0.0
  0
LINE
  5
21C
330
1F
100
AcDbEntity
  8
Sichtbare_Kanten_TC_020513_DIN_
  6
Continuous
 62
     7
100
AcDbLine
 10
120.612775147078
 20
111.589214046792
 30
0.0
 11
59.6127751470782
 21
111.589214046792
 31
0.0
  0
LINE
  5
21D
330
1F
100
AcDbEntity
  8
Sichtbare_Kanten_TC_020513_DIN_
  6
Continuous
 62
     7
100
AcDbLine
 10
54.3127751470781
 20
111.589214046792
 30
0.0
 11
59.6127751470782
 21
111.589214046792
 31
0.0
  0
LINE
  5
21E
330
1F
100
AcDbEntity
  8
Sichtbare_Kanten_TC_020513_DIN_
  6
Continuous
 62
     7
100
AcDbLine
 10
53.6127751470782
 20
110.889214046792
 30
0.0
 11
54.3127751470781
 21
111.589214046792
 31
0.0
  0
LINE
  5
21F
330
1F
100
AcDbEntity
  8
Sichtbare_Kanten_TC_020513_DIN_
  6
Continuous
 62
     7
100
AcDbLine
 10
120.612775147078
 20
91.1392140467917
 30
0.0
 11
59.6127751470782
 21
91.1392140467917
 31
0.0
  0
LINE
  5
220
330
1F
100
AcDbEntity
  8
Sichtbare_Kanten_TC_020513_DIN_
  6
Continuous
 62
     7
100
AcDbLine
 10
59.6127751470782
 20
103.389214046792
 30
0.0
 11
120.612775147078
 21
103.389214046792
 31
0.0
  0
LINE
  5
221
330
1F
100
AcDbEntity
  8
Sichtbare_Kanten_TC_020513_DIN_
  6
Continuous
 62
     7
100
AcDbLine
 10
120.612775147078
 20
104.889214046792
 30
0.0
 11
59.6127751470782
 21
104.889214046792
 31
0.0
  0
LINE
  5
222
330
1F
100
AcDbEntity
  8
Sichtbare_Kanten_TC_020513_DIN_
  6
Continuous
 62
     7
100
AcDbLine
 10
59.6127751470782
 20
105.889214046792
 30
0.0
 11
120.612775147078
 21
105.889214046792
 31
0.0
  0
LINE
  5
223
330
1F
100
AcDbEntity
  8
Sichtbare_Kanten_TC_020513_DIN_
  6
Continuous
 62
     7
100
AcDbLine
 10
120.612775147078
 20
107.389214046792
 30
0.0
 11
59.6127751470782
 21
107.389214046792
 31
0.0
  0
LINE
  5
224
330
1F
100
AcDbEntity
  8
Sichtbare_Kanten_TC_020513_DIN_
  6
Continuous
 62
     7
100
AcDbLine
 10
59.6127751470782
 20
108.389214046792
 30
0.0
 11
120.612775147078
 21
108.389214046792
 31
0.0
  0
LINE
  5
225
330
1F
100
AcDbEntity
  8
Sichtbare_Kanten_TC_020513_DIN_
  6
Continuous
 62
     7
100
AcDbLine
 10
120.612775147078
 20
112.389214046792
 30
0.0
 11
59.6127751470782
 21
112.389214046792
 31
0.0
  0
LINE
  5
226
330
1F
100
AcDbEntity
  8
Sichtbare_Kanten_TC_020513_DIN_
  6
Continuous
 62
     7
100
AcDbLine
 10
120.612775147078
 20
109.889214046792
 30
0.0
 11
59.6127751470782
 21
109.889214046792
 31
0.0
  0
LINE
  5
227
330
1F
100
AcDbEntity
  8
Sichtbare_Kanten_TC_020513_DIN_
  6
Continuous
 62
     7
100
AcDbLine
 10
59.6127751470782
 20
110.889214046792
 30
0.0
 11
120.612775147078
 21
110.889214046792
 31
0.0
  0
LINE
  5
228
330
1F
100
AcDbEntity
  8
Sichtbare_Kanten_TC_020513_DIN_
  6
Continuous
 62
     7
100
AcDbLine
 10
126.612775147078
 20
103.389214046792
 30
0.0
 11
126.612775147078
 21
104.889214046792
 31
0.0
  0
LINE
  5
229
330
1F
100
AcDbEntity
  8
Sichtbare_Kanten_TC_020513_DIN_
  6
Continuous
 62
     7
100
AcDbLine
 10
126.612775147078
 20
105.889214046792
 30
0.0
 11
126.612775147078
 21
107.389214046792
 31
0.0
  0
LINE
  5
22A
330
1F
100
AcDbEntity
  8
Sichtbare_Kanten_TC_020513_DIN_
  6
Continuous
 62
     7
100
AcDbLine
 10
126.612775147078
 20
108.389214046792
 30
0.0
 11
126.612775147078
 21
109.889214046792
 31
0.0
  0
LINE
  5
22B
330
1F
100
AcDbEntity
  8
Sichtbare_Kanten_TC_020513_DIN_
  6
Continuous
 62
     7
100
AcDbLine
 10
126.612775147078
 20
110.889214046792
 30
0.0
 11
126.612775147078
 21
112.389214046792
 31
0.0
  0
LINE
  5
22C
330
1F
100
AcDbEntity
  8
Sichtbare_Kanten_TC_020513_DIN_
  6
Continuous
 62
     7
100
AcDbLine
 10
53.6127751470782
 20
112.389214046792
 30
0.0
 11
53.6127751470782
 21
110.889214046792
 31
0.0
  0
LINE
  5
22D
330
1F
100
AcDbEntity
  8
Sichtbare_Kanten_TC_020513_DIN_
  6
Continuous
 62
     7
100
AcDbLine
 10
53.6127751470782
 20
109.889214046792
 30
0.0
 11
53.6127751470782
 21
108.389214046792
 31
0.0
  0
LINE
  5
22E
330
1F
100
AcDbEntity
  8
Sichtbare_Kanten_TC_020513_DIN_
  6
Continuous
 62
     7
100
AcDbLine
 10
53.6127751470782
 20
107.389214046792
 30
0.0
 11
53.6127751470782
 21
105.889214046792
 31
0.0
  0
LINE
  5
22F
330
1F
100
AcDbEntity
  8
Sichtbare_Kanten_TC_020513_DIN_
  6
Continuous
 62
     7
100
AcDbLine
 10
53.6127751470782
 20
104.889214046792
 30
0.0
 11
53.6127751470782
 21
103.389214046792
 31
0.0
  0
LINE
  5
230
330
1F
100
AcDbEntity
  8
Sichtbare_Kanten_TC_020513_DIN_
  6
Continuous
 62
     7
100
AcDbLine
 10
111.499591073916
 20
161.139214046792
 30
0.0
 11
115.071887518028
 21
161.139214046792
 31
0.0
  0
LINE
  5
231
330
1F
100
AcDbEntity
  8
Sichtbare_Kanten_TC_020513_DIN_
  6
Continuous
 62
     7
100
AcDbLine
 10
65.1536627761285
 20
161.139214046792
 30
0.0
 11
68.7259592202399
 21
161.139214046792
 31
0.0
  0
LINE
  5
232
330
1F
100
AcDbEntity
  8
Sichtbare_Kanten_TC_020513_DIN_
  6
Continuous
 62
     7
100
AcDbLine
 10
62.7042579921489
 20
159.139630077927
 30
0.0
 11
53.734203665527
 21
115.233574689725
 31
0.0
  0
LINE
  5
233
330
1F
100
AcDbEntity
  8
Sichtbare_Kanten_TC_020513_DIN_
  6
Continuous
 62
     7
100
AcDbLine
 10
59.6127751470782
 20
91.1392140467917
 30
0.0
 11
53.6127751470782
 21
91.1392140467917
 31
0.0
  0
LINE
  5
234
330
1F
100
AcDbEntity
  8
Sichtbare_Kanten_TC_020513_DIN_
  6
Continuous
 62
     7
100
AcDbLine
 10
126.612775147078
 20
91.1392140467917
 30
0.0
 11
120.612775147078
 21
91.1392140467917
 31
0.0
  0
LINE
  5
235
330
1F
100
AcDbEntity
  8
Sichtbare_Kanten_TC_020513_DIN_
  6
Continuous
 62
     7
100
AcDbLine
 10
126.612775147078
 20
103.389214046792
 30
0.0
 11
120.612775147078
 21
103.389214046792
 31
0.0
  0
LINE
  5
236
330
1F
100
AcDbEntity
  8
Sichtbare_Kanten_TC_020513_DIN_
  6
Continuous
 62
     7
100
AcDbLine
 10
59.6127751470782
 20
103.389214046792
 30
0.0
 11
53.6127751470782
 21
103.389214046792
 31
0.0
  0
LINE
  5
237
330
1F
100
AcDbEntity
  8
Sichtbare_Kanten_TC_020513_DIN_
  6
Continuous
 62
     7
100
AcDbLine
 10
53.6127751470782
 20
104.889214046792
 30
0.0
 11
59.6127751470782
 21
104.889214046792
 31
0.0
  0
LINE
  5
238
330
1F
100
AcDbEntity
  8
Sichtbare_Kanten_TC_020513_DIN_
  6
Continuous
 62
     7
100
AcDbLine
 10
120.612775147078
 20
104.889214046792
 30
0.0
 11
126.612775147078
 21
104.889214046792
 31
0.0
  0
LINE
  5
239
330
1F
100
AcDbEntity
  8
Sichtbare_Kanten_TC_020513_DIN_
  6
Continuous
 62
     7
100
AcDbLine
 10
126.612775147078
 20
105.889214046792
 30
0.0
 11
120.612775147078
 21
105.889214046792
 31
0.0
  0
LINE
  5
23A
330
1F
100
AcDbEntity
  8
Sichtbare_Kanten_TC_020513_DIN_
  6
Continuous
 62
     7
100
AcDbLine
 10
59.6127751470782
 20
105.889214046792
 30
0.0
 11
53.6127751470782
 21
105.889214046792
 31
0.0
  0
LINE
  5
23B
330
1F
100
AcDbEntity
  8
Sichtbare_Kanten_TC_020513_DIN_
  6
Continuous
 62
     7
100
AcDbLine
 10
53.6127751470782
 20
107.389214046792
 30
0.0
 11
59.6127751470782
 21
107.389214046792
 31
0.0
  0
LINE
  5
23C
330
1F
100
AcDbEntity
  8
Sichtbare_Kanten_TC_020513_DIN_
  6
Continuous
 62
     7
100
AcDbLine
 10
120.612775147078
 20
107.389214046792
 30
0.0
 11
126.612775147078
 21
107.389214046792
 31
0.0
  0
LINE
  5
23D
330
1F
100
AcDbEntity
  8
Sichtbare_Kanten_TC_020513_DIN_
  6
Continuous
 62
     7
100
AcDbLine
 10
126.612775147078
 20
108.389214046792
 30
0.0
 11
120.612775147078
 21
108.389214046792
 31
0.0
  0
LINE
  5
23E
330
1F
100
AcDbEntity
  8
Sichtbare_Kanten_TC_020513_DIN_
  6
Continuous
 62
     7
100
AcDbLine
 10
59.6127751470782
 20
108.389214046792
 30
0.0
 11
53.6127751470782
 21
108.389214046792
 31
0.0
  0
LINE
  5
23F
330
1F
100
AcDbEntity
  8
Sichtbare_Kanten_TC_020513_DIN_
  6
Continuous
 62
     7
100
AcDbLine
 10
120.612775147078
 20
112.389214046792
 30
0.0
 11
126.612775147078
 21
112.389214046792
 31
0.0
  0
LINE
  5
240
330
1F
100
AcDbEntity
  8
Sichtbare_Kanten_TC_020513_DIN_
  6
Continuous
 62
     7
100
AcDbLine
 10
53.6127751470782
 20
112.389214046792
 30
0.0
 11
59.6127751470782
 21
112.389214046792
 31
0.0
  0
LINE
  5
241
330
1F
100
AcDbEntity
  8
Sichtbare_Kanten_TC_020513_DIN_
  6
Continuous
 62
     7
100
AcDbLine
 10
53.6127751470782
 20
109.889214046792
 30
0.0
 11
59.6127751470782
 21
109.889214046792
 31
0.0
  0
LINE
  5
242
330
1F
100
AcDbEntity
  8
Sichtbare_Kanten_TC_020513_DIN_
  6
Continuous
 62
     7
100
AcDbLine
 10
120.612775147078
 20
109.889214046792
 30
0.0
 11
126.612775147078
 21
109.889214046792
 31
0.0
  0
LINE
  5
243
330
1F
100
AcDbEntity
  8
Sichtbare_Kanten_TC_020513_DIN_
  6
Continuous
 62
     7
100
AcDbLine
 10
126.612775147078
 20
110.889214046792
 30
0.0
 11
120.612775147078
 21
110.889214046792
 31
0.0
  0
LINE
  5
244
330
1F
100
AcDbEntity
  8
Sichtbare_Kanten_TC_020513_DIN_
  6
Continuous
 62
     7
100
AcDbLine
 10
59.6127751470782
 20
110.889214046792
 30
0.0
 11
53.6127751470782
 21
110.889214046792
 31
0.0
  0
LINE
  5
245
330
1F
100
AcDbEntity
  8
Sichtbare_Kanten_TC_020513_DIN_
  6
Continuous
 62
     7
100
AcDbLine
 10
126.612775147078
 20
91.1392140467917
 30
0.0
 11
126.612775147078
 21
103.389214046792
 31
0.0
  0
LINE
  5
246
330
1F
100
AcDbEntity
  8
Sichtbare_Kanten_TC_020513_DIN_
  6
Continuous
 62
     7
100
AcDbLine
 10
126.612775147078
 20
104.889214046792
 30
0.0
 11
126.612775147078
 21
105.889214046792
 31
0.0
  0
LINE
  5
247
330
1F
100
AcDbEntity
  8
Sichtbare_Kanten_TC_020513_DIN_
  6
Continuous
 62
     7
100
AcDbLine
 10
126.612775147078
 20
107.389214046792
 30
0.0
 11
126.612775147078
 21
108.389214046792
 31
0.0
  0
LINE
  5
248
330
1F
100
AcDbEntity
  8
Sichtbare_Kanten_TC_020513_DIN_
  6
Continuous
 62
     7
100
AcDbLine
 10
126.612775147078
 20
109.889214046792
 30
0.0
 11
126.612775147078
 21
110.889214046792
 31
0.0
  0
LINE
  5
249
330
1F
100
AcDbEntity
  8
Sichtbare_Kanten_TC_020513_DIN_
  6
Continuous
 62
     7
100
AcDbLine
 10
126.612775147078
 20
112.389214046792
 30
0.0
 11
126.612775147078
 21
114.032576215
 31
0.0
  0
LINE
  5
24A
330
1F
100
AcDbEntity
  8
Sichtbare_Kanten_TC_020513_DIN_
  6
Continuous
 62
     7
100
AcDbLine
 10
53.6127751470782
 20
114.032576215
 30
0.0
 11
53.6127751470782
 21
112.389214046792
 31
0.0
  0
LINE
  5
24B
330
1F
100
AcDbEntity
  8
Sichtbare_Kanten_TC_020513_DIN_
  6
Continuous
 62
     7
100
AcDbLine
 10
53.6127751470782
 20
110.889214046792
 30
0.0
 11
53.6127751470782
 21
109.889214046792
 31
0.0
  0
LINE
  5
24C
330
1F
100
AcDbEntity
  8
Sichtbare_Kanten_TC_020513_DIN_
  6
Continuous
 62
     7
100
AcDbLine
 10
53.6127751470782
 20
108.389214046792
 30
0.0
 11
53.6127751470782
 21
107.389214046792
 31
0.0
  0
LINE
  5
24D
330
1F
100
AcDbEntity
  8
Sichtbare_Kanten_TC_020513_DIN_
  6
Continuous
 62
     7
100
AcDbLine
 10
53.6127751470782
 20
105.889214046792
 30
0.0
 11
53.6127751470782
 21
104.889214046792
 31
0.0
  0
LINE
  5
24E
330
1F
100
AcDbEntity
  8
Sichtbare_Kanten_TC_020513_DIN_
  6
Continuous
 62
     7
100
AcDbLine
 10
53.6127751470782
 20
103.389214046792
 30
0.0
 11
53.6127751470782
 21
91.1392140467917
 31
0.0
  0
LINE
  5
24F
330
1F
100
AcDbEntity
  8
Sichtbare_Kanten_TC_020513_DIN_
  6
Continuous
 62
     7
100
AcDbLine
 10
126.491346628629
 20
115.233574689725
 30
0.0
 11
124.3433007295
 21
125.747694090726
 31
0.0
  0
LINE
  5
250
330
1F
100
AcDbEntity
  8
Sichtbare_Kanten_TC_020513_DIN_
  6
Continuous
 62
     7
100
AcDbLine
 10
118.37847597975
 20
154.943941550027
 30
0.0
 11
117.521292302007
 21
159.139630077927
 31
0.0
  0
LINE
  5
251
330
1F
100
AcDbEntity
  8
Sichtbare_Kanten_TC_020513_DIN_
  6
Continuous
 62
     7
100
AcDbLine
 10
68.0109054567991
 20
155.139214046792
 30
0.0
 11
112.214644837357
 21
155.139214046792
 31
0.0
  0
LINE
  5
252
330
1F
100
AcDbEntity
  8
Sichtbare_Kanten_TC_020513_DIN_
  6
Continuous
 62
     7
100
AcDbLine
 10
88.8627751470782
 20
135.649214046792
 30
0.0
 11
88.8627751470782
 21
138.772214102323
 31
0.0
  0
LINE
  5
253
330
1F
100
AcDbEntity
  8
Sichtbare_Kanten_TC_020513_DIN_
  6
Continuous
 62
     7
100
AcDbLine
 10
89.3131058421251
 20
138.921772160019
 30
0.0
 11
90.1127751470782
 21
137.850627548114
 31
0.0
  0
LINE
  5
254
330
1F
100
AcDbEntity
  8
Sichtbare_Kanten_TC_020513_DIN_
  6
Continuous
 62
     7
100
AcDbLine
 10
90.1127751470782
 20
137.850627548114
 30
0.0
 11
90.9124444520313
 21
138.921772160019
 31
0.0
  0
LINE
  5
255
330
1F
100
AcDbEntity
  8
Sichtbare_Kanten_TC_020513_DIN_
  6
Continuous
 62
     7
100
AcDbLine
 10
89.3627751470782
 20
138.019445074057
 30
0.0
 11
89.3627751470782
 21
135.649214046792
 31
0.0
  0
LINE
  5
256
330
1F
100
AcDbEntity
  8
Sichtbare_Kanten_TC_020513_DIN_
  6
Continuous
 62
     7
100
AcDbLine
 10
90.1127751470782
 20
137.014831724572
 30
0.0
 11
89.3627751470782
 21
138.019445074057
 31
0.0
  0
LINE
  5
257
330
1F
100
AcDbEntity
  8
Sichtbare_Kanten_TC_020513_DIN_
  6
Continuous
 62
     7
100
AcDbLine
 10
90.8627751470782
 20
138.019445074057
 30
0.0
 11
90.1127751470782
 21
137.014831724572
 31
0.0
  0
LINE
  5
258
330
1F
100
AcDbEntity
  8
Sichtbare_Kanten_TC_020513_DIN_
  6
Continuous
 62
     7
100
AcDbLine
 10
90.8627751470782
 20
134.506213991261
 30
0.0
 11
90.8627751470782
 21
138.019445074057
 31
0.0
  0
LINE
  5
259
330
1F
100
AcDbEntity
  8
Sichtbare_Kanten_TC_020513_DIN_
  6
Continuous
 62
     7
100
AcDbLine
 10
91.3627751470782
 20
138.772214102323
 30
0.0
 11
91.3627751470782
 21
134.506213991261
 31
0.0
  0
LINE
  5
25A
330
1F
100
AcDbEntity
  8
Sichtbare_Kanten_TC_020513_DIN_
  6
Continuous
 62
     7
100
AcDbLine
 10
87.8627751470781
 20
135.082880657927
 30
0.0
 11
87.8627751470782
 21
138.195547435656
 31
0.0
  0
LINE
  5
25B
330
1F
100
AcDbEntity
  8
Sichtbare_Kanten_TC_020513_DIN_
  6
Continuous
 62
     7
100
AcDbLine
 10
88.3627751470782
 20
138.195547435656
 30
0.0
 11
88.3627751470781
 21
135.227303713492
 31
0.0
  0
LINE
  5
25C
330
1F
100
AcDbEntity
  8
Sichtbare_Kanten_TC_020513_DIN_
  6
Continuous
 62
     7
100
AcDbLine
 10
89.9878861995857
 20
133.712976895416
 30
0.0
 11
87.9878861995857
 21
134.86631022875
 31
0.0
  0
LINE
  5
25D
330
1F
100
AcDbEntity
  8
Sichtbare_Kanten_TC_020513_DIN_
  6
Continuous
 62
     7
100
AcDbLine
 10
88.3627751470781
 20
135.227303713492
 30
0.0
 11
90.2376640945706
 21
134.146117753772
 31
0.0
  0
LINE
  5
25E
330
1F
100
AcDbEntity
  8
Sichtbare_Kanten_TC_020513_DIN_
  6
Continuous
 62
     7
100
AcDbLine
 10
90.1127751470782
 20
133.179214046792
 30
0.0
 11
96.1127751470782
 21
136.639214046792
 31
0.0
  0
LINE
  5
25F
330
1F
100
AcDbEntity
  8
Sichtbare_Kanten_TC_020513_DIN_
  6
Continuous
 62
     7
100
AcDbLine
 10
84.1127751470782
 20
136.639214046792
 30
0.0
 11
90.1127751470782
 21
133.179214046792
 31
0.0
  0
LINE
  5
260
330
1F
100
AcDbEntity
  8
Sichtbare_Kanten_TC_020513_DIN_
  6
Continuous
 62
     7
100
AcDbLine
 10
90.1127751470782
 20
140.099214046792
 30
0.0
 11
84.1127751470782
 21
136.639214046792
 31
0.0
  0
LINE
  5
261
330
1F
100
AcDbEntity
  8
Sichtbare_Kanten_TC_020513_DIN_
  6
Continuous
 62
     7
100
AcDbLine
 10
96.1127751470782
 20
136.639214046792
 30
0.0
 11
90.1127751470782
 21
140.099214046792
 31
0.0
  0
LINE
  5
262
330
1F
100
AcDbEntity
  8
Sichtbare_Kanten_TC_020513_DIN_
  6
Continuous
 62
     7
100
AcDbLine
 10
86.8627751470782
 20
135.649214046792
 30
0.0
 11
86.8627751470782
 21
137.629214046792
 31
0.0
  0
LINE
  5
263
330
1F
100
AcDbEntity
  8
Sichtbare_Kanten_TC_020513_DIN_
  6
Continuous
 62
     7
100
AcDbLine
 10
87.3627751470782
 20
137.629214046792
 30
0.0
 11
87.3627751470782
 21
135.649214046792
 31
0.0
  0
LINE
  5
264
330
1F
100
AcDbEntity
  8
Sichtbare_Kanten_TC_020513_DIN_
  6
Continuous
 62
     7
100
AcDbLine
 10
92.2376640945706
 20
138.412117864834
 30
0.0
 11
93.2376640945706
 21
137.835451198167
 31
0.0
  0
LINE
  5
265
330
1F
100
AcDbEntity
  8
Sichtbare_Kanten_TC_020513_DIN_
  6
Continuous
 62
     7
100
AcDbLine
 10
92.9878861995857
 20
137.402310339811
 30
0.0
 11
92.3627751470782
 21
137.762791046758
 31
0.0
  0
LINE
  5
266
330
1F
100
AcDbEntity
  8
Sichtbare_Kanten_TC_020513_DIN_
  6
Continuous
 62
     7
100
AcDbLine
 10
92.3627751470782
 20
137.762791046758
 30
0.0
 11
92.3627751470782
 21
136.889214046792
 31
0.0
  0
LINE
  5
267
330
1F
100
AcDbEntity
  8
Sichtbare_Kanten_TC_020513_DIN_
  6
Continuous
 62
     7
100
AcDbLine
 10
92.3627751470782
 20
136.889214046792
 30
0.0
 11
93.1127751470782
 21
136.889214046792
 31
0.0
  0
LINE
  5
268
330
1F
100
AcDbEntity
  8
Sichtbare_Kanten_TC_020513_DIN_
  6
Continuous
 62
     7
100
AcDbLine
 10
91.8627751470782
 20
135.082880657927
 30
0.0
 11
91.8627751470781
 21
138.195547435656
 31
0.0
  0
LINE
  5
269
330
1F
100
AcDbEntity
  8
Sichtbare_Kanten_TC_020513_DIN_
  6
Continuous
 62
     7
100
AcDbLine
 10
93.2376640945706
 20
135.442976895416
 30
0.0
 11
92.2376640945706
 21
134.86631022875
 31
0.0
  0
LINE
  5
26A
330
1F
100
AcDbEntity
  8
Sichtbare_Kanten_TC_020513_DIN_
  6
Continuous
 62
     7
100
AcDbLine
 10
92.3627751470782
 20
135.515637046826
 30
0.0
 11
92.9878861995857
 21
135.876117753772
 31
0.0
  0
LINE
  5
26B
330
1F
100
AcDbEntity
  8
Sichtbare_Kanten_TC_020513_DIN_
  6
Continuous
 62
     7
100
AcDbLine
 10
92.3627751470782
 20
136.389214046792
 30
0.0
 11
92.3627751470782
 21
135.515637046826
 31
0.0
  0
LINE
  5
26C
330
1F
100
AcDbEntity
  8
Sichtbare_Kanten_TC_020513_DIN_
  6
Continuous
 62
     7
100
AcDbLine
 10
93.1127751470782
 20
136.389214046792
 30
0.0
 11
92.3627751470782
 21
136.389214046792
 31
0.0
  0
LINE
  5
26D
330
1F
100
AcDbEntity
  8
Sichtbare_Kanten_TC_020513_DIN_
  6
Continuous
 62
     7
100
AcDbLine
 10
118.956580321229
 20
122.139214046792
 30
0.0
 11
61.2689699729281
 21
122.139214046792
 31
0.0
  0
LINE
  5
26E
330
1F
100
AcDbEntity
  8
Sichtbare_Kanten_TC_020513_DIN_
  6
Continuous
 62
     7
100
AcDbLine
 10
119.747668278161
 20
134.836383910056
 30
0.0
 11
122.137412658827
 21
123.139214046792
 31
0.0
  0
LINE
  5
26F
330
1F
100
AcDbEntity
  8
Sichtbare_Kanten_TC_020513_DIN_
  6
Continuous
 62
     7
100
AcDbLine
 10
58.0881376353288
 20
123.139214046792
 30
0.0
 11
122.137412658827
 21
123.139214046792
 31
0.0
  0
LINE
  5
270
330
1F
100
AcDbEntity
  8
Sichtbare_Kanten_TC_020513_DIN_
  6
Continuous
 62
     7
100
AcDbLine
 10
58.0881376353288
 20
123.139214046792
 30
0.0
 11
64.4214709686622
 21
154.139214046792
 31
0.0
  0
LINE
  5
271
330
1F
100
AcDbEntity
  8
Sichtbare_Kanten_TC_020513_DIN_
  6
Continuous
 62
     7
100
AcDbLine
 10
64.4214709686622
 20
154.139214046792
 30
0.0
 11
115.804079325494
 21
154.139214046792
 31
0.0
  0
LINE
  5
272
330
1F
100
AcDbEntity
  8
Sichtbare_Kanten_TC_020513_DIN_
  6
Continuous
 62
     7
100
AcDbLine
 10
115.804079325494
 20
154.139214046792
 30
0.0
 11
117.715970770517
 21
144.781008552731
 31
0.0
  0
LINE
  5
273
330
1F
100
AcDbEntity
  8
Sichtbare_Kanten_TC_020513_DIN_
  6
Continuous
 62
     7
100
AcDbLine
 10
96.6132197521043
 20
136.639214046792
 30
0.0
 11
90.1127751470782
 21
132.89062432456
 31
0.0
  0
LINE
  5
274
330
1F
100
AcDbEntity
  8
Sichtbare_Kanten_TC_020513_DIN_
  6
Continuous
 62
     7
100
AcDbLine
 10
90.1127751470782
 20
140.387803769023
 30
0.0
 11
96.6132197521043
 21
136.639214046792
 31
0.0
  0
LINE
  5
275
330
1F
100
AcDbEntity
  8
Sichtbare_Kanten_TC_020513_DIN_
  6
Continuous
 62
     7
100
AcDbLine
 10
83.6123305420521
 20
136.639214046792
 30
0.0
 11
90.1127751470782
 21
140.387803769023
 31
0.0
  0
LINE
  5
276
330
1F
100
AcDbEntity
  8
Sichtbare_Kanten_TC_020513_DIN_
  6
Continuous
 62
     7
100
AcDbLine
 10
90.1127751470782
 20
132.89062432456
 30
0.0
 11
83.6123305420521
 21
136.639214046792
 31
0.0
  0
LINE
  5
277
330
1F
100
AcDbEntity
  8
Sichtbare_Kanten_TC_020513_DIN_
  6
Continuous
 62
     7
100
AcDbLine
 10
131.242530859884
 20
164.308754737736
 30
0.0
 11
116.546102156006
 21
161.306258550922
 31
0.0
  0
LINE
  5
278
330
1F
100
AcDbEntity
  8
Sichtbare_Kanten_TC_020513_DIN_
  6
Continuous
 62
     7
100
AcDbLine
 10
139.849686595417
 20
122.178992453286
 30
0.0
 11
125.664466222392
 21
119.280936678152
 31
0.0
  0
LINE
  5
279
330
1F
100
AcDbEntity
  8
Sichtbare_Kanten_TC_020513_DIN_
  6
Continuous
 62
     7
100
AcDbLine
 10
115.827180808149
 20
161.022390927742
 30
0.0
 11
116.546102156006
 21
161.306258550922
 31
0.0
  0
LINE
  5
27A
330
1F
100
AcDbEntity
  8
Sichtbare_Kanten_TC_020513_DIN_
  6
Continuous
 62
     7
100
AcDbLine
 10
131.242530859884
 20
164.308754737736
 30
0.0
 11
139.849686595417
 21
122.178992453286
 31
0.0
  0
LINE
  5
27B
330
1F
100
AcDbEntity
  8
Sichtbare_Kanten_TC_020513_DIN_
  6
Continuous
 62
     7
100
AcDbLine
 10
118.480038944413
 20
151.840146902402
 30
0.0
 11
123.219321103137
 21
128.642607914966
 31
0.0
  0
LINE
  5
27C
330
1F
100
AcDbEntity
  8
Sichtbare_Kanten_TC_020513_DIN_
  6
Continuous
 62
     7
100
AcDbLine
 10
116.546102156006
 20
161.306258550922
 30
0.0
 11
116.70411091186
 21
160.532847272268
 31
0.0
  0
ARC
  5
27D
330
1F
100
AcDbEntity
  8
Sichtbare_Kanten_TC_020513_DIN_
  6
Continuous
 62
     7
100
AcDbCircle
 10
202.815023019614
 20
158.639214046792
 30
0.0
 40
2.5
100
AcDbArc
 50
90.0
 51
180.0
  0
ARC
  5
27E
330
1F
100
AcDbEntity
  8
Sichtbare_Kanten_TC_020513_DIN_
  6
Continuous
 62
     7
100
AcDbCircle
 10
240.815023019614
 20
158.639214046792
 30
0.0
 40
2.5
100
AcDbArc
 50
0.0
 51
90.0
  0
ARC
  5
27F
330
1F
100
AcDbEntity
  8
Sichtbare_Kanten_TC_020513_DIN_
  6
Continuous
 62
     7
100
AcDbCircle
 10
59.6127751470783
 20
114.032576215
 30
0.0
 40
6.000000000000006
100
AcDbArc
 50
168.4533094540777
 51
180.0
  0
ARC
  5
280
330
1F
100
AcDbEntity
  8
Sichtbare_Kanten_TC_020513_DIN_
  6
Continuous
 62
     7
100
AcDbCircle
 10
65.1536627761285
 20
158.639214046792
 30
0.0
 40
2.5
100
AcDbArc
 50
90.0
 51
168.4533094540868
  0
ARC
  5
281
330
1F
100
AcDbEntity
  8
Sichtbare_Kanten_TC_020513_DIN_
  6
Continuous
 62
     7
100
AcDbCircle
 10
115.071887518028
 20
158.639214046792
 30
0.0
 40
2.499999999999213
100
AcDbArc
 50
11.54669054591601
 51
90.0
  0
ARC
  5
282
330
1F
100
AcDbEntity
  8
Sichtbare_Kanten_TC_020513_DIN_
  6
Continuous
 62
     7
100
AcDbCircle
 10
120.612775147078
 20
114.032576215
 30
0.0
 40
6.0
100
AcDbArc
 50
0.0
 51
11.54669054592286
  0
ARC
  5
283
330
1F
100
AcDbEntity
  8
Sichtbare_Kanten_TC_020513_DIN_
  6
Continuous
 62
     7
100
AcDbCircle
 10
89.1127751470782
 20
135.649214046792
 30
0.0
 40
0.25
100
AcDbArc
 50
180.0
 51
0.0
  0
ARC
  5
284
330
1F
100
AcDbEntity
  8
Sichtbare_Kanten_TC_020513_DIN_
  6
Continuous
 62
     7
100
AcDbCircle
 10
89.1127751470782
 20
138.772214102323
 30
0.0
 40
0.2499999999995479
100
AcDbArc
 50
36.74339513769738
 51
180.0
  0
ARC
  5
285
330
1F
100
AcDbEntity
  8
Sichtbare_Kanten_TC_020513_DIN_
  6
Continuous
 62
     7
100
AcDbCircle
 10
91.1127751470782
 20
134.506213991261
 30
0.0
 40
0.25
100
AcDbArc
 50
180.0
 51
0.0
  0
ARC
  5
286
330
1F
100
AcDbEntity
  8
Sichtbare_Kanten_TC_020513_DIN_
  6
Continuous
 62
     7
100
AcDbCircle
 10
91.1127751470782
 20
138.772214102323
 30
0.0
 40
0.25
100
AcDbArc
 50
0.0
 51
143.2566048623026
  0
ARC
  5
287
330
1F
100
AcDbEntity
  8
Sichtbare_Kanten_TC_020513_DIN_
  6
Continuous
 62
     7
100
AcDbCircle
 10
88.1127751470782
 20
138.195547435656
 30
0.0
 40
0.25
100
AcDbArc
 50
0.0
 51
180.0
  0
ARC
  5
288
330
1F
100
AcDbEntity
  8
Sichtbare_Kanten_TC_020513_DIN_
  6
Continuous
 62
     7
100
AcDbCircle
 10
88.1127751470782
 20
135.082880657927
 30
0.0
 40
0.2500000000000995
100
AcDbArc
 50
180.0
 51
240.0293843499338
  0
ARC
  5
289
330
1F
100
AcDbEntity
  8
Sichtbare_Kanten_TC_020513_DIN_
  6
Continuous
 62
     7
100
AcDbCircle
 10
90.1127751470782
 20
133.929547324594
 30
0.0
 40
0.2500000000002571
100
AcDbArc
 50
240.0293843500478
 51
60.02938435006141
  0
ARC
  5
28A
330
1F
100
AcDbEntity
  8
Sichtbare_Kanten_TC_020513_DIN_
  6
Continuous
 62
     7
100
AcDbCircle
 10
87.1127751470782
 20
135.649214046792
 30
0.0
 40
0.25
100
AcDbArc
 50
180.0
 51
0.0
  0
ARC
  5
28B
330
1F
100
AcDbEntity
  8
Sichtbare_Kanten_TC_020513_DIN_
  6
Continuous
 62
     7
100
AcDbCircle
 10
87.1127751470782
 20
137.629214046792
 30
0.0
 40
0.25
100
AcDbArc
 50
0.0
 51
180.0
  0
ARC
  5
28C
330
1F
100
AcDbEntity
  8
Sichtbare_Kanten_TC_020513_DIN_
  6
Continuous
 62
     7
100
AcDbCircle
 10
92.1127751470781
 20
138.195547435656
 30
0.0
 40
0.2500000000002395
100
AcDbArc
 50
60.02938435004166
 51
180.0
  0
ARC
  5
28D
330
1F
100
AcDbEntity
  8
Sichtbare_Kanten_TC_020513_DIN_
  6
Continuous
 62
     7
100
AcDbCircle
 10
93.1127751470782
 20
137.618880768989
 30
0.0
 40
0.2500000000002324
100
AcDbArc
 50
240.0293843500445
 51
60.02938435006466
  0
ARC
  5
28E
330
1F
100
AcDbEntity
  8
Sichtbare_Kanten_TC_020513_DIN_
  6
Continuous
 62
     7
100
AcDbCircle
 10
92.1127751470782
 20
135.082880657927
 30
0.0
 40
0.25
100
AcDbArc
 50
180.0
 51
299.9706156500492
  0
ARC
  5
28F
330
1F
100
AcDbEntity
  8
Sichtbare_Kanten_TC_020513_DIN_
  6
Continuous
 62
     7
100
AcDbCircle
 10
93.1127751470782
 20
135.659547324594
 30
0.0
 40
0.2500000000002335
100
AcDbArc
 50
299.9706165037194
 51
119.9706156499523
  0
ARC
  5
290
330
1F
100
AcDbEntity
  8
Sichtbare_Kanten_TC_020513_DIN_
  6
Continuous
 62
     7
100
AcDbCircle
 10
93.1127751470782
 20
136.639214046792
 30
0.0
 40
0.25
100
AcDbArc
 50
270.0
 51
90.0
  0
CIRCLE
  5
291
330
1F
100
AcDbEntity
  8
Sichtbare_Kanten_TC_020513_DIN_
  6
Continuous
 62
     7
100
AcDbCircle
 10
76.6127751470782
 20
98.6392140467917
 30
0.0
 40
4.0
  0
CIRCLE
  5
292
330
1F
100
AcDbEntity
  8
Sichtbare_Kanten_TC_020513_DIN_
  6
Continuous
 62
     7
100
AcDbCircle
 10
76.6127751470782
 20
98.6392140467917
 30
0.0
 40
2.499999999999901
  0
CIRCLE
  5
293
330
1F
100
AcDbEntity
  8
Sichtbare_Kanten_TC_020513_DIN_
  6
Continuous
 62
     7
100
AcDbCircle
 10
103.612775147078
 20
98.6392140467917
 30
0.0
 40
4.0
  0
CIRCLE
  5
294
330
1F
100
AcDbEntity
  8
Sichtbare_Kanten_TC_020513_DIN_
  6
Continuous
 62
     7
100
AcDbCircle
 10
103.612775147078
 20
98.6392140467917
 30
0.0
 40
2.5
  0
SPLINE
  5
295
330
1F
100
AcDbEntity
  8
Sichtbare_Kanten_TC_020513_DIN_
  6
Continuous
 62
     7
100
AcDbSpline
210
0.0
220
0.0
230
1.0
 70
     8
 71
     3
 72
     9
 73
     5
 74
     3
 42
0.0000000001
 43
0.0000000001
 44
0.00000001
 40
0.0
 40
0.0
 40
0.0
 40
0.0
 40
3.226484463963648
 40
6.447473384490248
 40
6.447473384490248
 40
6.447473384490248
 40
6.447473384490248
 10
201.315023019633
 20
149.593456503676
 30
0.0
 10
201.0239969517085
 20
148.5538452534522
 30
0.0
 10
200.4424405090562
 20
146.4763934817489
 30
0.0
 10
200.3574713747867
 20
144.3207677706635
 30
0.0
 10
200.315023019633
 20
143.243873595511
 30
0.0
 11
201.315023019633
 21
149.593456503676
 31
0.0
 11
200.5663033677666
 21
146.4550459379425
 31
0.0
 11
200.315023019633
 21
143.243873595511
 31
0.0
  0
SPLINE
  5
296
330
1F
100
AcDbEntity
  8
Sichtbare_Kanten_TC_020513_DIN_
  6
Continuous
 62
     7
100
AcDbSpline
210
0.0
220
0.0
230
1.0
 70
     8
 71
     3
 72
    17
 73
    13
 74
    11
 42
0.0000000001
 43
0.0000000001
 44
0.00000001
 40
0.0
 40
0.0
 40
0.0
 40
0.0
 40
3.736865077959979
 40
7.47375272210644
 40
9.348773360308847
 40
11.22381504869188
 40
13.09928609255553
 40
14.9747059279451
 40
16.84823518320756
 40
18.72194691892618
 40
21.27851465602138
 40
23.83282715748641
 40
23.83282715748641
 40
23.83282715748641
 40
23.83282715748641
 10
233.156988520345
 20
161.139214046792
 30
0.0
 10
232.059236211366
 20
161.7341476466584
 30
0.0
 10
229.8637249642998
 20
162.9240184390773
 30
0.0
 10
226.8424914628593
 20
163.7851193293347
 30
0.0
 10
224.3784001755961
 20
164.1860452070964
 30
0.0
 10
222.5055425532243
 20
164.3245099055451
 30
0.0
 10
220.6281909462961
 20
164.3033829107287
 30
0.0
 10
218.7599475598669
 20
164.1218933719805
 30
0.0
 10
216.9141308746194
 20
163.782223560594
 30
0.0
 10
214.8871901255098
 20
163.2224826702447
 30
0.0
 10
212.7025832693646
 20
162.3931613482251
 30
0.0
 10
211.2160141137304
 20
161.557073502759
 30
0.0
 10
210.473057518919
 20
161.139214046792
 30
0.0
 11
233.156988520345
 21
161.139214046792
 31
0.0
 11
229.8087884858971
 21
162.7986468234359
 31
0.0
 11
226.2259901932089
 21
163.8606664366657
 31
0.0
 11
224.3748420284603
 21
164.1589161069637
 31
0.0
 11
222.5049588349144
 21
164.2979059471274
 31
0.0
 11
220.6296083071695
 21
164.2766448451345
 31
0.0
 11
218.7629641259968
 21
164.0954293384393
 31
0.0
 11
216.9205037694524
 21
163.7556474894734
 31
0.0
 11
215.1137046821461
 21
163.2593887598989
 31
0.0
 11
212.7298994051973
 21
162.3355321714898
 31
0.0
 11
210.473057518919
 21
161.139214046792
 31
0.0
  0
SPLINE
  5
297
330
1F
100
AcDbEntity
  8
Sichtbare_Kanten_TC_020513_DIN_
  6
Continuous
 62
     7
100
AcDbSpline
210
0.0
220
0.0
230
1.0
 70
     8
 71
     3
 72
     9
 73
     5
 74
     3
 42
0.0000000001
 43
0.0000000001
 44
0.00000001
 40
0.0
 40
0.0
 40
0.0
 40
0.0
 40
3.226459349284087
 40
6.447462894870306
 40
6.447462894870306
 40
6.447462894870306
 40
6.447462894870306
 10
243.315023019633
 20
143.243873595511
 30
0.0
 10
243.2723963067109
 20
144.3225986750682
 30
0.0
 10
243.187214960801
 20
146.4782247565666
 30
0.0
 10
242.6055896107508
 20
148.555631884376
 30
0.0
 10
242.315023019634
 20
149.593456503673
 30
0.0
 11
243.315023019633
 21
143.243873595511
 31
0.0
 11
243.0628217470215
 21
146.460460987558
 31
0.0
 11
242.315023019634
 21
149.593456503673
 31
0.0
  0
SPLINE
  5
298
330
1F
100
AcDbEntity
  8
Sichtbare_Kanten_TC_020513_DIN_
  6
Continuous
 62
     7
100
AcDbSpline
210
0.0
220
0.0
230
1.0
 70
     8
 71
     3
 72
    11
 73
     7
 74
     5
 42
0.0000000001
 43
0.0000000001
 44
0.00000001
 40
0.0
 40
0.0
 40
0.0
 40
0.0
 40
3.673737185349546
 40
7.347465064838248
 40
10.12196909046557
 40
12.89415840007419
 40
12.89415840007419
 40
12.89415840007419
 40
12.89415840007419
 10
201.315023019629
 20
146.590960316862
 30
0.0
 10
200.9977474036957
 20
145.4045984052129
 30
0.0
 10
200.3631969755128
 20
143.0318775870612
 30
0.0
 10
200.2501935483955
 20
139.6342098402392
 30
0.0
 10
200.5641128377891
 20
136.566273963905
 30
0.0
 10
201.0647892722089
 20
134.7830395984208
 30
0.0
 10
201.31502301963
 20
133.891794500532
 30
0.0
 11
201.315023019629
 21
146.590960316862
 31
0.0
 11
200.5013270336214
 21
143.0084690399187
 31
0.0
 11
200.3347804309922
 21
139.3385182552779
 31
0.0
 11
200.6422150283194
 21
136.58109979654
 31
0.0
 11
201.31502301963
 21
133.891794500532
 31
0.0
  0
SPLINE
  5
299
330
1F
100
AcDbEntity
  8
Sichtbare_Kanten_TC_020513_DIN_
  6
Continuous
 62
     7
100
AcDbSpline
210
0.0
220
0.0
230
1.0
 70
     8
 71
     3
 72
    11
 73
     7
 74
     5
 42
0.0000000001
 43
0.0000000001
 44
0.00000001
 40
0.0
 40
0.0
 40
0.0
 40
0.0
 40
3.673737185349342
 40
7.347465064838079
 40
10.12196909046536
 40
12.89415840007391
 40
12.89415840007391
 40
12.89415840007391
 40
12.89415840007391
 10
242.31502301963
 20
133.891794500532
 30
0.0
 10
242.632298635563
 20
135.0781564121812
 30
0.0
 10
243.2668490637453
 20
137.4508772303329
 30
0.0
 10
243.3798524908626
 20
140.8485449771547
 30
0.0
 10
243.0659332014697
 20
143.916480853489
 30
0.0
 10
242.5652567670501
 20
145.6997152189732
 30
0.0
 10
242.315023019629
 20
146.590960316862
 30
0.0
 11
242.31502301963
 21
133.891794500532
 31
0.0
 11
243.1287190056368
 21
137.4742857774753
 31
0.0
 11
243.2952656082662
 21
141.1442365621161
 31
0.0
 11
242.9878310109394
 21
143.901655020854
 31
0.0
 11
242.315023019629
 21
146.590960316862
 31
0.0
  0
SPLINE
  5
29A
330
1F
100
AcDbEntity
  8
Sichtbare_Kanten_TC_020513_DIN_
  6
Continuous
 62
     7
100
AcDbSpline
210
0.0
220
0.0
230
1.0
 70
     8
 71
     3
 72
     9
 73
     5
 74
     3
 42
0.0000000001
 43
0.0000000001
 44
0.00000001
 40
0.0
 40
0.0
 40
0.0
 40
0.0
 40
2.711375524744374
 40
5.414827803118776
 40
5.414827803118776
 40
5.414827803118776
 40
5.414827803118776
 10
224.517284352308
 20
161.139214046792
 30
0.0
 10
223.615204992795
 20
161.2227726372545
 30
0.0
 10
221.8136823516365
 20
161.3896456412693
 30
0.0
 10
220.0121898972787
 20
161.2226097732107
 30
0.0
 10
219.112761686948
 20
161.139214046792
 30
0.0
 11
224.517284352308
 21
161.139214046792
 31
0.0
 11
221.811053842571
 21
161.3061681253625
 31
0.0
 11
219.112761686948
 21
161.139214046792
 31
0.0
  0
SPLINE
  5
29B
330
1F
100
AcDbEntity
  8
Sichtbare_Kanten_TC_020513_DIN_
  6
Continuous
 62
     7
100
AcDbSpline
210
0.0
220
0.0
230
1.0
 70
     8
 71
     3
 72
    11
 73
     7
 74
     5
 42
0.0000000001
 43
0.0000000001
 44
0.00000001
 40
0.0
 40
0.0
 40
0.0
 40
0.0
 40
1.102696566904675
 40
2.205478076111281
 40
2.985551275169179
 40
3.765139406601095
 40
3.765139406601095
 40
3.765139406601095
 40
3.765139406601095
 10
68.0109054567991
 20
155.139214046792
 30
0.0
 10
67.64292552720276
 20
155.1205897255117
 30
0.0
 10
66.90693732198709
 20
155.083339648293
 30
0.0
 10
65.93907766665556
 20
154.8267058260212
 30
0.0
 10
65.10897699388572
 20
154.508823104456
 30
0.0
 10
64.65059212323625
 20
154.2623915185901
 30
0.0
 10
64.4214709686622
 20
154.139214046792
 30
0.0
 11
68.0109054567991
 21
155.139214046792
 31
0.0
 11
66.91221867120449
 21
155.045261581028
 31
0.0
 11
65.84247055344986
 21
154.777369771507
 31
0.0
 11
65.1158023025386
 21
154.4937019217143
 31
0.0
 11
64.4214709686622
 21
154.139214046792
 31
0.0
  0
SPLINE
  5
29C
330
1F
100
AcDbEntity
  8
Sichtbare_Kanten_TC_020513_DIN_
  6
Continuous
 62
     7
100
AcDbSpline
210
0.0
220
0.0
230
1.0
 70
     8
 71
     3
 72
    11
 73
     7
 74
     5
 42
0.0000000001
 43
0.0000000001
 44
0.00000001
 40
0.0
 40
0.0
 40
0.0
 40
0.0
 40
0.9872250636820292
 40
1.974556802991472
 40
2.681820939563997
 40
3.388510063619763
 40
3.388510063619763
 40
3.388510063619763
 40
3.388510063619763
 10
58.0881376353288
 20
123.139214046792
 30
0.0
 10
58.36421247768602
 20
122.9578633897923
 30
0.0
 10
58.91639199395368
 20
122.5951424797597
 30
0.0
 10
59.77297630166652
 20
122.3106911937078
 30
0.0
 10
60.56139051433392
 20
122.1620770409636
 30
0.0
 10
61.03317410682392
 20
122.1468329784144
 30
0.0
 10
61.2689699729281
 20
122.139214046792
 30
0.0
 11
58.0881376353288
 21
123.139214046792
 31
0.0
 11
58.93598549303987
 21
122.6334795942018
 31
0.0
 11
59.86756581321801
 21
122.3063984567074
 31
0.0
 11
60.56346587592631
 21
122.1801223243456
 31
0.0
 11
61.2689699729281
 21
122.139214046792
 31
0.0
  0
SPLINE
  5
29D
330
1F
100
AcDbEntity
  8
Sichtbare_Kanten_TC_020513_DIN_
  6
Continuous
 62
     7
100
AcDbSpline
210
0.0
220
0.0
230
1.0
 70
     8
 71
     3
 72
    11
 73
     7
 74
     5
 42
0.0000000001
 43
0.0000000001
 44
0.00000001
 40
0.0
 40
0.0
 40
0.0
 40
0.0
 40
1.030741284441137
 40
2.061395580370406
 40
2.725494118185336
 40
3.388713165586273
 40
3.388713165586273
 40
3.388713165586273
 40
3.388713165586273
 10
118.956580321229
 20
122.139214046792
 30
0.0
 10
119.3007231877608
 20
122.1554267929423
 30
0.0
 10
119.9889798771874
 20
122.1878509169821
 30
0.0
 10
120.8701448192908
 20
122.4388257741787
 30
0.0
 10
121.5892659963386
 20
122.7630940578968
 30
0.0
 10
121.9547778349435
 20
123.01389611159
 30
0.0
 10
122.137412658827
 20
123.139214046792
 30
0.0
 11
118.956580321229
 21
122.139214046792
 31
0.0
 11
119.9835589865003
 21
122.2272050493377
 31
0.0
 11
120.9771648755366
 21
122.5010583220766
 31
0.0
 11
121.5796996705907
 21
122.780304966957
 31
0.0
 11
122.137412658827
 21
123.139214046792
 31
0.0
  0
SPLINE
  5
29E
330
1F
100
AcDbEntity
  8
Sichtbare_Kanten_TC_020513_DIN_
  6
Continuous
 62
     7
100
AcDbSpline
210
0.0
220
0.0
230
1.0
 70
     8
 71
     3
 72
    11
 73
     7
 74
     5
 42
0.0000000001
 43
0.0000000001
 44
0.00000001
 40
0.0
 40
0.0
 40
0.0
 40
0.0
 40
1.141923194807726
 40
2.283805101141207
 40
3.0248732586592
 40
3.765267280731806
 40
3.765267280731806
 40
3.765267280731806
 40
3.765267280731806
 10
115.804079325494
 20
154.139214046792
 30
0.0
 10
115.4658984167884
 20
154.3154750557487
 30
0.0
 10
114.7895488269716
 20
154.6679907005993
 30
0.0
 10
113.8184436956917
 20
154.9592817432655
 30
0.0
 10
112.9557672115337
 20
155.113977239366
 30
0.0
 10
112.4616106738742
 20
155.1308043300243
 30
0.0
 10
112.214644837357
 20
155.139214046792
 30
0.0
 11
115.804079325494
 21
154.139214046792
 31
0.0
 11
114.7753253194966
 21
154.6348487691272
 31
0.0
 11
113.6843609064951
 21
154.9720296368763
 31
0.0
 11
112.953798067822
 21
155.0963676955591
 31
0.0
 11
112.214644837357
 21
155.139214046792
 31
0.0
  0
LWPOLYLINE
  5
29F
330
1F
100
AcDbEntity
  8
Sichtbare_Kanten_TC_020513_DIN_
  6
Continuous
 62
     7
100
AcDbPolyline
 90
       25
 70
     0
 43
0.0
 10
124.3433006407
 20
125.74769497712
 10
124.318335831282
 20
125.864644058541
 10
124.291194260237
 20
125.981898315743
 10
124.261906921981
 20
126.099460132912
 10
124.230519116042
 20
126.217331894234
 10
124.197064221022
 20
126.335515983895
 10
124.16158276808
 20
126.454012401894
 10
124.124110520003
 20
126.572823532418
 10
124.084685623763
 20
126.691951759652
 10
124.043346226332
 20
126.811399467782
 10
124.00013285887
 20
126.931166656808
 10
123.955078899977
 20
127.051255710915
 10
123.908224880812
 20
127.171671398476
 10
123.859606564162
 20
127.292411335305
 10
123.80926686537
 20
127.413480289773
 10
123.757236778853
 20
127.53487826188
 10
123.703559219954
 20
127.656607635812
 10
123.648272335646
 20
127.778670795754
 10
123.591409504531
 20
127.901070125893
 10
123.533011257765
 20
128.023805626229
 10
123.473118126509
 20
128.146879680947
 10
123.411763489363
 20
128.270297058419
 10
123.348987877486
 20
128.394055374459
 10
123.284827053664
 20
128.518157013253
 10
123.219321549056
 20
128.642606743172
  0
LWPOLYLINE
  5
2A0
330
1F
100
AcDbEntity
  8
Sichtbare_Kanten_TC_020513_DIN_
  6
Continuous
 62
     7
100
AcDbPolyline
 90
       25
 70
     0
 43
0.0
 10
118.480039417861
 20
151.840145595864
 10
118.491483509658
 20
151.980316646889
 10
118.501823723433
 20
152.119643696145
 10
118.511026680586
 20
152.258107670144
 10
118.519059002516
 20
152.395699032143
 10
118.525880158065
 20
152.532403477029
 10
118.53145676863
 20
152.668206699685
 10
118.535753071425
 20
152.803099163369
 10
118.53873568785
 20
152.937071331338
 10
118.540364086745
 20
153.070099361733
 10
118.540607273696
 20
153.202173717812
 10
118.539429485915
 20
153.333289631203
 10
118.53679257643
 20
153.463423260049
 10
118.532660782454
 20
153.592565067605
 10
118.527000725386
 20
153.720700748757
 10
118.51977664244
 20
153.847825535134
 10
118.510952770827
 20
153.973910816506
 10
118.500490963576
 20
154.098956592873
 10
118.488360226271
 20
154.222948559121
 10
118.474520027754
 20
154.345867641762
 10
118.45893937361
 20
154.467699535683
 10
118.441580116866
 20
154.588439472512
 10
118.422406494734
 20
154.708068378762
 10
118.401382744429
 20
154.826571949318
 10
118.378475487349
 20
154.943940647439
  0
LWPOLYLINE
  5
2A1
330
1F
100
AcDbEntity
  8
Sichtbare_Kanten_TC_020513_DIN_
  6
Continuous
 62
     7
100
AcDbPolyline
 90
       26
 70
     0
 43
0.0
 10
119.747668087599
 20
134.836385258034
 10
119.1293295027
 20
135.135467060403
 10
118.558286011336
 20
135.441415317849
 10
118.033905804274
 20
135.754363544778
 10
117.555621445296
 20
136.074450023964
 10
117.122920334456
 20
136.401822574929
 10
116.735342323897
 20
136.73662901719
 10
116.392489254592
 20
137.079041012124
 10
116.094005882857
 20
137.429220684365
 10
115.839601338027
 20
137.787354000405
 10
115.629022896407
 20
138.153617389992
 10
115.462079823134
 20
138.528215893105
 10
115.33862429869
 20
138.911345012978
 10
115.258563339827
 20
139.303224094704
 10
115.221849262831
 20
139.704077251748
 10
115.228486836074
 20
140.114133365945
 10
115.278530895827
 20
140.533645160989
 10
115.372079193709
 20
140.962865360573
 10
115.509291470168
 20
141.402056225136
 10
115.69036799681
 20
141.851508625344
 10
115.915563881514
 20
142.311508663491
 10
116.185189068434
 20
142.78236628373
 10
116.499598801253
 20
143.264396198586
 10
116.859210312483
 20
143.757946499184
 10
117.264493286727
 20
144.263360508279
 10
117.715969860671
 20
144.781010158852
  0
LWPOLYLINE
  5
2A2
330
1F
100
AcDbEntity
  8
Sichtbare_Kanten_TC_020513_DIN_
  6
Continuous
 62
     7
100
AcDbPolyline
 90
       25
 70
     0
 43
0.0
 10
117.715969860671
 20
144.781010158852
 10
117.743094742415
 20
145.090377338723
 10
117.772479832289
 20
145.399301060036
 10
117.803848564742
 20
145.707662113503
 10
117.836919605849
 20
146.015346058205
 10
117.871418774245
 20
146.32222414811
 10
117.907062351821
 20
146.628172405556
 10
117.943578541396
 20
146.933081157998
 10
117.980676472304
 20
147.236821659402
 10
118.01809865248
 20
147.539284237221
 10
118.055642426131
 20
147.840344913796
 10
118.093105137465
 20
148.139879711465
 10
118.130281746504
 20
148.437774189309
 10
118.166967213271
 20
148.733904369668
 10
118.202961266158
 20
149.02814627488
 10
118.238056481001
 20
149.320380695656
 10
118.272054970381
 20
149.610483654336
 10
118.304749310134
 20
149.89834071
 10
118.335936844466
 20
150.183823116616
 10
118.365414917586
 20
150.466816433266
 10
118.392980873702
 20
150.74719668229
 10
118.418427288649
 20
151.024839886025
 10
118.441556275008
 20
151.299626835183
 10
118.462160408614
 20
151.571433552102
 10
118.480039417861
 20
151.840145595864
  0
LWPOLYLINE
  5
2A3
330
1F
100
AcDbEntity
  8
Sichtbare_Kanten_TC_020513_DIN_
  6
Continuous
 62
     7
100
AcDbPolyline
 90
       25
 70
     0
 43
0.0
 10
123.219321549056
 20
128.642606743172
 10
123.097480118392
 20
128.882775314645
 10
122.971912205336
 20
129.124722488717
 10
122.842858612654
 20
129.368417270974
 10
122.710548222182
 20
129.613831051186
 10
122.575219452498
 20
129.860930450753
 10
122.43710595381
 20
130.109682091073
 10
122.296441376326
 20
130.360057361916
 10
122.153461754439
 20
130.612020500497
 10
122.008400738356
 20
130.86554528077
 10
121.861491978285
 20
131.12059593995
 10
121.71297150862
 20
131.37714148362
 10
121.563075363753
 20
131.635148533181
 10
121.412034809706
 20
131.894590862588
 10
121.260088265059
 20
132.155430324868
 10
121.107466995833
 20
132.417643078164
 10
120.954407036421
 20
132.681186207131
 10
120.801146805403
 20
132.946040638283
 10
120.647962868331
 20
133.212192066506
 10
120.495169937728
 20
133.479645260171
 10
120.34307080519
 20
133.748400219277
 10
120.191965878127
 20
134.018452175454
 10
120.042162716506
 20
134.289801128701
 10
119.893961727736
 20
134.562447079018
 10
119.747668087599
 20
134.836385258034
  0
TEXT
  5
2A5
330
1F
100
AcDbEntity
  8
Symbole_ISO_
 62
     7
100
AcDbText
 10
138.0
 20
19.2499999701976
 30
0.0
 40
4.00000005960464
  1
CAOT 10.5
 41
0.89999994635582
  7
CONVERTER_13
100
AcDbText
  0
TEXT
  5
2A6
330
1F
100
AcDbEntity
  8
Symbole_ISO_
 62
     7
100
AcDbText
 10
251.305457141674
 20
12.5
 30
0.0
 40
5.0
  1
1:1
 41
0.67499998211861
  7
CONVERTER_12
100
AcDbText
  0
TEXT
  5
2A7
330
1F
100
AcDbEntity
  8
Symbole_ISO_
 62
     7
100
AcDbText
 10
138.0
 20
11.7499999701976
 30
0.0
 40
4.00000005960464
  1
hood side entry NPT 3/4"
 41
0.89999994635582
  7
CONVERTER_13
100
AcDbText
  0
DIMENSION
  5
2B3
330
1F
100
AcDbEntity
  8
Bemaßungen_TC_020513_DIN_
100
AcDbDimension
  2
*D3
 10
142.9786097896732
 20
159.6149295129068
 30
0.0
 11
150.1361999134455
 21
146.789389404094
 31
0.0
 70
    32
  1
NPT 3/4"
 71
     5
 42
-1.0
 53
101.5466905459273
  3
ME10_DIM_10
100
AcDbAlignedDimension
 13
133.128062440273
 23
127.897276180461
 33
0.0
 14
127.302419172204
 24
156.412266913639
 34
0.0
 50
101.5466905459273
100
AcDbRotatedDimension
  0
DIMENSION
  5
2BE
330
1F
100
AcDbEntity
  8
Bemaßungen_TC_020513_DIN_
100
AcDbDimension
  2
*D4
 10
43.61277514707814
 20
161.1392140467918
 30
0.0
 11
39.2387642330263
 21
126.522686079534
 31
0.0
 70
    32
  1
70
 71
     5
 42
-1.0
 53
90.0
  3
ME10_DIM_11
100
AcDbAlignedDimension
 13
59.6127751470782
 23
91.1392140467917
 33
0.0
 14
68.7259592202399
 24
161.139214046792
 34
0.0
 50
90.0
100
AcDbRotatedDimension
  0
DIMENSION
  5
2C9
330
1F
100
AcDbEntity
  8
Bemaßungen_TC_020513_DIN_
100
AcDbDimension
  2
*D5
 10
193.3150230196161
 20
64.63921404679166
 30
0.0
 11
222.178201737215
 21
68.9989002678012
 31
0.0
 70
    32
  1
57
 71
     5
 42
-1.0
 53
0.00013888888889
  3
ME10_DIM_12
100
AcDbAlignedDimension
 13
250.315023019616
 23
98.6392140467917
 33
0.0
 14
193.315023019616
 24
98.6392140467917
 34
0.0
100
AcDbRotatedDimension
  0
DIMENSION
  5
2D4
330
1F
100
AcDbEntity
  8
Bemaßungen_TC_020513_DIN_
100
AcDbDimension
  2
*D6
 10
200.3150230196114
 20
75.13921404679176
 30
0.0
 11
222.107771996419
 21
79.515612409684
 31
0.0
 70
    32
  1
43
 71
     5
 42
-1.0
 53
0.00013888888889
  3
ME10_DIM_13
100
AcDbAlignedDimension
 13
243.315023019611
 23
91.1392140467917
 33
0.0
 14
200.315023019611
 24
91.1392140467917
 34
0.0
100
AcDbRotatedDimension
  0
DIMENSION
  5
2DF
330
1F
100
AcDbEntity
  8
Bemaßungen_TC_020513_DIN_
100
AcDbDimension
  2
*D7
 10
53.61277514707821
 20
75.26421404679166
 30
0.0
 11
90.4902785577194
 21
79.6406124096839
 31
0.0
 70
    32
  1
73
 71
     5
 42
-1.0
 53
0.00013888888889
  3
ME10_DIM_14
100
AcDbAlignedDimension
 13
126.612775147078
 23
97.2642140467917
 33
0.0
 14
53.6127751470782
 24
97.2642140467917
 34
0.0
100
AcDbRotatedDimension
  0
ENDSEC
  0
SECTION
  2
OBJECTS
  0
DICTIONARY
  5
C
330
0
100
AcDbDictionary
281
     1
  3
ACAD_GROUP
350
D
  3
ACAD_LAYOUT
350
1A
  3
ACAD_MATERIAL
350
3B
  3
ACAD_MLEADERSTYLE
350
2E2
  3
ACAD_MLINESTYLE
350
17
  3
ACAD_PLOTSETTINGS
350
19
  3
ACAD_PLOTSTYLENAME
350
E
  3
ACAD_SCALELIST
350
51
  3
ACAD_VISUALSTYLE
350
2A
  3
AcDbVariableDictionary
350
2E0
  0
DICTIONARY
  5
D
102
{ACAD_REACTORS
330
C
102
}
330
C
100
AcDbDictionary
281
     1
  0
DICTIONARY
  5
1A
102
{ACAD_REACTORS
330
C
102
}
330
C
100
AcDbDictionary
281
     1
  3
Layout1
350
1E
  3
Layout2
350
26
  3
Model
350
22
  0
DICTIONARY
  5
3B
102
{ACAD_REACTORS
330
C
102
}
330
C
100
AcDbDictionary
281
     1
  3
ByBlock
350
3D
  3
ByLayer
350
3C
  3
Global
350
3E
  0
DICTIONARY
  5
2E2
102
{ACAD_REACTORS
330
C
102
}
330
C
100
AcDbDictionary
281
     1
  0
DICTIONARY
  5
17
102
{ACAD_REACTORS
330
C
102
}
330
C
100
AcDbDictionary
281
     1
  3
Standard
350
18
  0
DICTIONARY
  5
19
102
{ACAD_REACTORS
330
C
102
}
330
C
100
AcDbDictionary
281
     1
  0
ACDBDICTIONARYWDFLT
  5
E
102
{ACAD_REACTORS
330
C
102
}
330
C
100
AcDbDictionary
281
     1
  3
Normal
350
F
100
AcDbDictionaryWithDefault
340
F
  0
DICTIONARY
  5
51
102
{ACAD_REACTORS
330
C
102
}
330
C
100
AcDbDictionary
281
     1
  3
A0
350
52
  3
A1
350
53
  3
A2
350
54
  3
A3
350
55
  3
A4
350
56
  3
A5
350
57
  3
A6
350
58
  3
A7
350
59
  3
A8
350
5A
  3
A9
350
5B
  3
B0
350
5C
  3
B1
350
5D
  3
B2
350
5E
  3
B3
350
5F
  3
B4
350
60
  3
B5
350
61
  3
B6
350
62
  3
B7
350
63
  3
B8
350
64
  3
B9
350
65
  3
C0
350
66
  3
C1
350
67
  3
C2
350
68
  3
C3
350
69
  3
C4
350
6A
  3
C5
350
6B
  3
C6
350
6C
  3
C7
350
6D
  3
C8
350
6E
  3
C9
350
6F
  3
D0
350
70
  3
D1
350
71
  3
D2
350
72
  0
DICTIONARY
  5
2A
102
{ACAD_REACTORS
330
C
102
}
330
C
100
AcDbDictionary
281
     1
  3
2dWireframe
350
2F
  3
3D Hidden
350
31
  3
3dWireframe
350
30
  3
Basic
350
32
  3
Brighten
350
36
  3
ColorChange
350
3A
  3
Conceptual
350
34
  3
Dim
350
35
  3
Facepattern
350
39
  3
Flat
350
2B
  3
FlatWithEdges
350
2C
  3
Gouraud
350
2D
  3
GouraudWithEdges
350
2E
  3
Linepattern
350
38
  3
Realistic
350
33
  3
Thicken
350
37
  0
DICTIONARY
  5
2E0
102
{ACAD_REACTORS
330
C
102
}
330
C
100
AcDbDictionary
281
     1
  3
CANNOSCALE
350
2E3
  3
DIMASSOC
350
2E4
  3
HIDETEXT
350
2E5
  0
LAYOUT
  5
1E
102
{ACAD_REACTORS
330
1A
102
}
330
1A
100
AcDbPlotSettings
  1

  2
none_device
  4

  6

 40
0.0
 41
0.0
 42
0.0
 43
0.0
 44
0.0
 45
0.0
 46
0.0
 47
0.0
 48
0.0
 49
0.0
140
0.0
141
0.0
142
1.0
143
1.0
 70
   688
 72
     0
 73
     0
 74
     5
  7

 75
    16
147
1.0
148
0.0
149
0.0
100
AcDbLayout
  1
Layout1
 70
     1
 71
     1
 10
0.0
 20
0.0
 11
12.0
 21
9.0
 12
0.0
 22
0.0
 32
0.0
 14
1.00000000000000E+20
 24
1.00000000000000E+20
 34
1.00000000000000E+20
 15
-1.00000000000000E+20
 25
-1.00000000000000E+20
 35
-1.00000000000000E+20
146
0.0
 13
0.0
 23
0.0
 33
0.0
 16
1.0
 26
0.0
 36
0.0
 17
0.0
 27
1.0
 37
0.0
 76
     0
330
1B
  0
LAYOUT
  5
26
102
{ACAD_REACTORS
330
1A
102
}
330
1A
100
AcDbPlotSettings
  1

  2
none_device
  4

  6

 40
0.0
 41
0.0
 42
0.0
 43
0.0
 44
0.0
 45
0.0
 46
0.0
 47
0.0
 48
0.0
 49
0.0
140
0.0
141
0.0
142
1.0
143
1.0
 70
   688
 72
     0
 73
     0
 74
     5
  7

 75
    16
147
1.0
148
0.0
149
0.0
100
AcDbLayout
  1
Layout2
 70
     1
 71
     2
 10
0.0
 20
0.0
 11
0.0
 21
0.0
 12
0.0
 22
0.0
 32
0.0
 14
0.0
 24
0.0
 34
0.0
 15
0.0
 25
0.0
 35
0.0
146
0.0
 13
0.0
 23
0.0
 33
0.0
 16
1.0
 26
0.0
 36
0.0
 17
0.0
 27
1.0
 37
0.0
 76
     0
330
23
  0
LAYOUT
  5
22
102
{ACAD_REACTORS
330
1A
102
}
330
1A
100
AcDbPlotSettings
  1

  2
none_device
  4

  6

 40
0.0
 41
0.0
 42
0.0
 43
0.0
 44
0.0
 45
0.0
 46
0.0
 47
0.0
 48
0.0
 49
0.0
140
0.0
141
0.0
142
1.0
143
1.0
 70
  1712
 72
     0
 73
     0
 74
     0
  7

 75
     0
147
1.0
148
0.0
149
0.0
100
AcDbLayout
  1
Model
 70
     1
 71
     0
 10
0.0
 20
0.0
 11
12.0
 21
9.0
 12
0.0
 22
0.0
 32
0.0
 14
9.99999999999998
 24
9.99999999999995
 34
0.0
 15
287.0
 25
210.0
 35
0.0
146
0.0
 13
0.0
 23
0.0
 33
0.0
 16
1.0
 26
0.0
 36
0.0
 17
0.0
 27
1.0
 37
0.0
 76
     0
330
1F
331
29
  0
MATERIAL
  5
3D
102
{ACAD_REACTORS
330
3B
102
}
102
{ACAD_XDICTIONARY
360
308
102
}
330
3B
100
AcDbMaterial
  1
ByBlock
  0
MATERIAL
  5
3C
102
{ACAD_REACTORS
330
3B
102
}
102
{ACAD_XDICTIONARY
360
306
102
}
330
3B
100
AcDbMaterial
  1
ByLayer
  0
MATERIAL
  5
3E
102
{ACAD_REACTORS
330
3B
102
}
102
{ACAD_XDICTIONARY
360
30A
102
}
330
3B
100
AcDbMaterial
  1
Global
  0
MLINESTYLE
  5
18
102
{ACAD_REACTORS
330
17
102
}
330
17
100
AcDbMlineStyle
  2
Standard
 70
     0
  3

 62
   256
 51
90.0
 52
90.0
 71
     2
 49
0.5
 62
   256
  6
BYLAYER
 49
-0.5
 62
   256
  6
BYLAYER
  0
ACDBPLACEHOLDER
  5
F
102
{ACAD_REACTORS
330
E
102
}
330
E
  0
SCALE
  5
52
102
{ACAD_REACTORS
330
51
102
}
330
51
100
AcDbScale
 70
     0
300
1:1
140
1.0
141
1.0
290
     1
  0
SCALE
  5
53
102
{ACAD_REACTORS
330
51
102
}
330
51
100
AcDbScale
 70
     0
300
1:2
140
1.0
141
2.0
290
     0
  0
SCALE
  5
54
102
{ACAD_REACTORS
330
51
102
}
330
51
100
AcDbScale
 70
     0
300
1:4
140
1.0
141
4.0
290
     0
  0
SCALE
  5
55
102
{ACAD_REACTORS
330
51
102
}
330
51
100
AcDbScale
 70
     0
300
1:5
140
1.0
141
5.0
290
     0
  0
SCALE
  5
56
102
{ACAD_REACTORS
330
51
102
}
330
51
100
AcDbScale
 70
     0
300
1:8
140
1.0
141
8.0
290
     0
  0
SCALE
  5
57
102
{ACAD_REACTORS
330
51
102
}
330
51
100
AcDbScale
 70
     0
300
1:10
140
1.0
141
10.0
290
     0
  0
SCALE
  5
58
102
{ACAD_REACTORS
330
51
102
}
330
51
100
AcDbScale
 70
     0
300
1:16
140
1.0
141
16.0
290
     0
  0
SCALE
  5
59
102
{ACAD_REACTORS
330
51
102
}
330
51
100
AcDbScale
 70
     0
300
1:20
140
1.0
141
20.0
290
     0
  0
SCALE
  5
5A
102
{ACAD_REACTORS
330
51
102
}
330
51
100
AcDbScale
 70
     0
300
1:30
140
1.0
141
30.0
290
     0
  0
SCALE
  5
5B
102
{ACAD_REACTORS
330
51
102
}
330
51
100
AcDbScale
 70
     0
300
1:40
140
1.0
141
40.0
290
     0
  0
SCALE
  5
5C
102
{ACAD_REACTORS
330
51
102
}
330
51
100
AcDbScale
 70
     0
300
1:50
140
1.0
141
50.0
290
     0
  0
SCALE
  5
5D
102
{ACAD_REACTORS
330
51
102
}
330
51
100
AcDbScale
 70
     0
300
1:100
140
1.0
141
100.0
290
     0
  0
SCALE
  5
5E
102
{ACAD_REACTORS
330
51
102
}
330
51
100
AcDbScale
 70
     0
300
2:1
140
2.0
141
1.0
290
     0
  0
SCALE
  5
5F
102
{ACAD_REACTORS
330
51
102
}
330
51
100
AcDbScale
 70
     0
300
4:1
140
4.0
141
1.0
290
     0
  0
SCALE
  5
60
102
{ACAD_REACTORS
330
51
102
}
330
51
100
AcDbScale
 70
     0
300
8:1
140
8.0
141
1.0
290
     0
  0
SCALE
  5
61
102
{ACAD_REACTORS
330
51
102
}
330
51
100
AcDbScale
 70
     0
300
10:1
140
10.0
141
1.0
290
     0
  0
SCALE
  5
62
102
{ACAD_REACTORS
330
51
102
}
330
51
100
AcDbScale
 70
     0
300
100:1
140
100.0
141
1.0
290
     0
  0
SCALE
  5
63
102
{ACAD_REACTORS
330
51
102
}
330
51
100
AcDbScale
 70
     0
300
1/128" = 1'-0"
140
0.0078125
141
12.0
290
     0
  0
SCALE
  5
64
102
{ACAD_REACTORS
330
51
102
}
330
51
100
AcDbScale
 70
     0
300
1/64" = 1'-0"
140
0.015625
141
12.0
290
     0
  0
SCALE
  5
65
102
{ACAD_REACTORS
330
51
102
}
330
51
100
AcDbScale
 70
     0
300
1/32" = 1'-0"
140
0.03125
141
12.0
290
     0
  0
SCALE
  5
66
102
{ACAD_REACTORS
330
51
102
}
330
51
100
AcDbScale
 70
     0
300
1/16" = 1'-0"
140
0.0625
141
12.0
290
     0
  0
SCALE
  5
67
102
{ACAD_REACTORS
330
51
102
}
330
51
100
AcDbScale
 70
     0
300
3/32" = 1'-0"
140
0.09375
141
12.0
290
     0
  0
SCALE
  5
68
102
{ACAD_REACTORS
330
51
102
}
330
51
100
AcDbScale
 70
     0
300
1/8" = 1'-0"
140
0.125
141
12.0
290
     0
  0
SCALE
  5
69
102
{ACAD_REACTORS
330
51
102
}
330
51
100
AcDbScale
 70
     0
300
3/16" = 1'-0"
140
0.1875
141
12.0
290
     0
  0
SCALE
  5
6A
102
{ACAD_REACTORS
330
51
102
}
330
51
100
AcDbScale
 70
     0
300
1/4" = 1'-0"
140
0.25
141
12.0
290
     0
  0
SCALE
  5
6B
102
{ACAD_REACTORS
330
51
102
}
330
51
100
AcDbScale
 70
     0
300
3/8" = 1'-0"
140
0.375
141
12.0
290
     0
  0
SCALE
  5
6C
102
{ACAD_REACTORS
330
51
102
}
330
51
100
AcDbScale
 70
     0
300
1/2" = 1'-0"
140
0.5
141
12.0
290
     0
  0
SCALE
  5
6D
102
{ACAD_REACTORS
330
51
102
}
330
51
100
AcDbScale
 70
     0
300
3/4" = 1'-0"
140
0.75
141
12.0
290
     0
  0
SCALE
  5
6E
102
{ACAD_REACTORS
330
51
102
}
330
51
100
AcDbScale
 70
     0
300
1" = 1'-0"
140
1.0
141
12.0
290
     0
  0
SCALE
  5
6F
102
{ACAD_REACTORS
330
51
102
}
330
51
100
AcDbScale
 70
     0
300
1-1/2" = 1'-0"
140
1.5
141
12.0
290
     0
  0
SCALE
  5
70
102
{ACAD_REACTORS
330
51
102
}
330
51
100
AcDbScale
 70
     0
300
3" = 1'-0"
140
3.0
141
12.0
290
     0
  0
SCALE
  5
71
102
{ACAD_REACTORS
330
51
102
}
330
51
100
AcDbScale
 70
     0
300
6" = 1'-0"
140
6.0
141
12.0
290
     0
  0
SCALE
  5
72
102
{ACAD_REACTORS
330
51
102
}
330
51
100
AcDbScale
 70
     0
300
1'-0" = 1'-0"
140
12.0
141
12.0
290
     0
  0
VISUALSTYLE
  5
2F
102
{ACAD_REACTORS
330
2A
102
}
102
{ACAD_XDICTIONARY
360
2EE
102
}
330
2A
100
AcDbVisualStyle
  2
2dWireframe
 70
     4
 71
     0
 72
     2
 73
     0
 90
        0
 40
-0.6
 41
-30.0
 62
     5
 63
     7
 74
     1
 91
        4
 64
     7
 65
   257
 75
     1
175
     1
 42
1.0
 92
        0
 66
   257
 43
1.0
 76
     1
 77
     6
 78
     2
 67
     7
 79
     5
170
     0
171
     0
290
     0
174
     0
 93
        1
 44
0.0
173
     0
291
     0
 45
0.0
1001
ACAD
1000
AcDbSavedByObjectVersion
1070
     0
  0
VISUALSTYLE
  5
31
102
{ACAD_REACTORS
330
2A
102
}
102
{ACAD_XDICTIONARY
360
2F2
102
}
330
2A
100
AcDbVisualStyle
  2
3D Hidden
 70
     6
 71
     1
 72
     2
 73
     2
 90
        0
 40
-0.6
 41
-30.0
 62
     5
 63
     7
 74
     2
 91
        2
 64
     7
 65
   257
 75
     2
175
     1
 42
40.0
 92
        0
 66
   257
 43
1.0
 76
     1
 77
     6
 78
     2
 67
     7
 79
     3
170
     0
171
     0
290
     0
174
     0
 93
        1
 44
0.0
173
     0
291
     0
 45
0.0
1001
ACAD
1000
AcDbSavedByObjectVersion
1070
     0
  0
VISUALSTYLE
  5
30
102
{ACAD_REACTORS
330
2A
102
}
102
{ACAD_XDICTIONARY
360
2F0
102
}
330
2A
100
AcDbVisualStyle
  2
3dWireframe
 70
     5
 71
     0
 72
     2
 73
     0
 90
        0
 40
-0.6
 41
-30.0
 62
     5
 63
     7
 74
     1
 91
        4
 64
     7
 65
   257
 75
     1
175
     1
 42
1.0
 92
        0
 66
   257
 43
1.0
 76
     1
 77
     6
 78
     2
 67
     7
 79
     5
170
     0
171
     0
290
     0
174
     0
 93
        1
 44
0.0
173
     0
291
     0
 45
0.0
1001
ACAD
1000
AcDbSavedByObjectVersion
1070
     0
  0
VISUALSTYLE
  5
32
102
{ACAD_REACTORS
330
2A
102
}
102
{ACAD_XDICTIONARY
360
2F4
102
}
330
2A
100
AcDbVisualStyle
  2
Basic
 70
     7
 71
     1
 72
     0
 73
     1
 90
        0
 40
-0.6
 41
-30.0
 62
     5
 63
     7
 74
     0
 91
        4
 64
     7
 65
   257
 75
     1
175
     1
 42
1.0
 92
        8
 66
     7
 43
1.0
 76
     1
 77
     6
 78
     2
 67
     7
 79
     5
170
     0
171
     0
290
     0
174
     0
 93
        1
 44
0.0
173
     0
291
     1
 45
0.0
1001
ACAD
1000
AcDbSavedByObjectVersion
1070
     0
  0
VISUALSTYLE
  5
36
102
{ACAD_REACTORS
330
2A
102
}
102
{ACAD_XDICTIONARY
360
2FC
102
}
330
2A
100
AcDbVisualStyle
  2
Brighten
 70
    12
 71
     2
 72
     2
 73
     0
 90
        0
 40
-0.6
 41
-30.0
 62
     5
 63
     7
 74
     1
 91
        4
 64
     7
 65
   257
 75
     1
175
     1
 42
1.0
 92
        8
 66
     7
 43
1.0
 76
     1
 77
     6
 78
     2
 67
     7
 79
     5
170
     0
171
     0
290
     0
174
     0
 93
        1
 44
50.0
173
     0
291
     1
 45
0.0
1001
ACAD
1000
AcDbSavedByObjectVersion
1070
     0
  0
VISUALSTYLE
  5
3A
102
{ACAD_REACTORS
330
2A
102
}
102
{ACAD_XDICTIONARY
360
304
102
}
330
2A
100
AcDbVisualStyle
  2
ColorChange
 70
    16
 71
     2
 72
     2
 73
     3
 90
        0
 40
-0.6
 41
-30.0
 62
     5
 63
     8
 74
     1
 91
        4
 64
     7
 65
   257
 75
     1
175
     1
 42
1.0
 92
        8
 66
     8
 43
1.0
 76
     1
 77
     6
 78
     2
 67
     7
 79
     5
170
     0
171
     0
290
     0
174
     0
 93
        1
 44
0.0
173
     0
291
     1
 45
0.0
1001
ACAD
1000
AcDbSavedByObjectVersion
1070
     0
  0
VISUALSTYLE
  5
34
102
{ACAD_REACTORS
330
2A
102
}
102
{ACAD_XDICTIONARY
360
2F8
102
}
330
2A
100
AcDbVisualStyle
  2
Conceptual
 70
     9
 71
     3
 72
     2
 73
     0
 90
        0
 40
-0.6
 41
-30.0
 62
     5
 63
     7
 74
     2
 91
        2
 64
     7
 65
   257
 75
     1
175
     1
 42
40.0
 92
        8
 66
     7
 43
1.0
 76
     1
 77
     6
 78
     2
 67
     7
 79
     3
170
     0
171
     0
290
     0
174
     0
 93
        1
 44
0.0
173
     0
291
     0
 45
0.0
1001
ACAD
1000
AcDbSavedByObjectVersion
1070
     0
  0
VISUALSTYLE
  5
35
102
{ACAD_REACTORS
330
2A
102
}
102
{ACAD_XDICTIONARY
360
2FA
102
}
330
2A
100
AcDbVisualStyle
  2
Dim
 70
    11
 71
     2
 72
     2
 73
     0
 90
        0
 40
-0.6
 41
-30.0
 62
     5
 63
     7
 74
     1
 91
        4
 64
     7
 65
   257
 75
     1
175
     1
 42
1.0
 92
        8
 66
     7
 43
1.0
 76
     1
 77
     6
 78
     2
 67
     7
 79
     5
170
     0
171
     0
290
     0
174
     0
 93
        1
 44
-50.0
173
     0
291
     1
 45
0.0
1001
ACAD
1000
AcDbSavedByObjectVersion
1070
     0
  0
VISUALSTYLE
  5
39
102
{ACAD_REACTORS
330
2A
102
}
102
{ACAD_XDICTIONARY
360
302
102
}
330
2A
100
AcDbVisualStyle
  2
Facepattern
 70
    15
 71
     2
 72
     2
 73
     0
 90
        0
 40
-0.6
 41
-30.0
 62
     5
 63
     7
 74
     1
 91
        4
 64
     7
 65
   257
 75
     1
175
     1
 42
1.0
 92
        8
 66
     7
 43
1.0
 76
     1
 77
     6
 78
     2
 67
     7
 79
     5
170
     0
171
     0
290
     0
174
     0
 93
        1
 44
0.0
173
     0
291
     1
 45
0.0
1001
ACAD
1000
AcDbSavedByObjectVersion
1070
     0
  0
VISUALSTYLE
  5
2B
102
{ACAD_REACTORS
330
2A
102
}
102
{ACAD_XDICTIONARY
360
2E6
102
}
330
2A
100
AcDbVisualStyle
  2
Flat
 70
     0
 71
     2
 72
     1
 73
     1
 90
        2
 40
-0.6
 41
30.0
 62
     5
 63
     7
 74
     0
 91
        4
 64
     7
 65
   257
 75
     1
175
     1
 42
1.0
 92
        8
 66
     7
 43
1.0
 76
     1
 77
     6
 78
     2
 67
     7
 79
     5
170
     0
171
     0
290
     0
174
     0
 93
       13
 44
0.0
173
     0
291
     1
 45
0.0
1001
ACAD
1000
AcDbSavedByObjectVersion
1070
     0
  0
VISUALSTYLE
  5
2C
102
{ACAD_REACTORS
330
2A
102
}
102
{ACAD_XDICTIONARY
360
2E8
102
}
330
2A
100
AcDbVisualStyle
  2
FlatWithEdges
 70
     1
 71
     2
 72
     1
 73
     1
 90
        2
 40
-0.6
 41
30.0
 62
     5
 63
     7
 74
     1
 91
        4
 64
     7
 65
   257
 75
     1
175
     1
 42
1.0
 92
        0
 66
   257
 43
1.0
 76
     1
 77
     6
 78
     2
 67
     7
 79
     5
170
     0
171
     0
290
     0
174
     0
 93
       13
 44
0.0
173
     0
291
     1
 45
0.0
1001
ACAD
1000
AcDbSavedByObjectVersion
1070
     0
  0
VISUALSTYLE
  5
2D
102
{ACAD_REACTORS
330
2A
102
}
102
{ACAD_XDICTIONARY
360
2EA
102
}
330
2A
100
AcDbVisualStyle
  2
Gouraud
 70
     2
 71
     2
 72
     2
 73
     1
 90
        2
 40
-0.6
 41
30.0
 62
     5
 63
     7
 74
     0
 91
        4
 64
     7
 65
   257
 75
     1
175
     1
 42
1.0
 92
        0
 66
     7
 43
1.0
 76
     1
 77
     6
 78
     2
 67
     7
 79
     5
170
     0
171
     0
290
     0
174
     0
 93
       13
 44
0.0
173
     0
291
     1
 45
0.0
1001
ACAD
1000
AcDbSavedByObjectVersion
1070
     0
  0
VISUALSTYLE
  5
2E
102
{ACAD_REACTORS
330
2A
102
}
102
{ACAD_XDICTIONARY
360
2EC
102
}
330
2A
100
AcDbVisualStyle
  2
GouraudWithEdges
 70
     3
 71
     2
 72
     2
 73
     1
 90
        2
 40
-0.6
 41
30.0
 62
     5
 63
     7
 74
     1
 91
        4
 64
     7
 65
   257
 75
     1
175
     1
 42
1.0
 92
        0
 66
   257
 43
1.0
 76
     1
 77
     6
 78
     2
 67
     7
 79
     5
170
     0
171
     0
290
     0
174
     0
 93
       13
 44
0.0
173
     0
291
     1
 45
0.0
1001
ACAD
1000
AcDbSavedByObjectVersion
1070
     0
  0
VISUALSTYLE
  5
38
102
{ACAD_REACTORS
330
2A
102
}
102
{ACAD_XDICTIONARY
360
300
102
}
330
2A
100
AcDbVisualStyle
  2
Linepattern
 70
    14
 71
     2
 72
     2
 73
     0
 90
        0
 40
-0.6
 41
-30.0
 62
     5
 63
     7
 74
     1
 91
        4
 64
     7
 65
   257
 75
     7
175
     7
 42
1.0
 92
        8
 66
     7
 43
1.0
 76
     1
 77
     6
 78
     2
 67
     7
 79
     5
170
     0
171
     0
290
     0
174
     0
 93
        1
 44
0.0
173
     0
291
     1
 45
0.0
1001
ACAD
1000
AcDbSavedByObjectVersion
1070
     0
  0
VISUALSTYLE
  5
33
102
{ACAD_REACTORS
330
2A
102
}
102
{ACAD_XDICTIONARY
360
2F6
102
}
330
2A
100
AcDbVisualStyle
  2
Realistic
 70
     8
 71
     2
 72
     2
 73
     0
 90
        0
 40
-0.6
 41
-30.0
 62
     5
 63
     7
 74
     1
 91
        0
 64
     7
 65
   257
 75
     1
175
     1
 42
1.0
 92
        8
 66
     8
 43
1.0
 76
     1
 77
     6
 78
     2
 67
     7
 79
     5
170
     0
171
     0
290
     0
174
     0
 93
       13
 44
0.0
173
     0
291
     0
 45
0.0
1001
ACAD
1000
AcDbSavedByObjectVersion
1070
     0
  0
VISUALSTYLE
  5
37
102
{ACAD_REACTORS
330
2A
102
}
102
{ACAD_XDICTIONARY
360
2FE
102
}
330
2A
100
AcDbVisualStyle
  2
Thicken
 70
    13
 71
     2
 72
     2
 73
     0
 90
        0
 40
-0.6
 41
-30.0
 62
     5
 63
     7
 74
     1
 91
        4
 64
     7
 65
   257
 75
     1
175
     1
 42
1.0
 92
       12
 66
     7
 43
1.0
 76
     1
 77
     6
 78
     2
 67
     7
 79
     5
170
     0
171
     0
290
     0
174
     0
 93
        1
 44
0.0
173
     0
291
     1
 45
0.0
1001
ACAD
1000
AcDbSavedByObjectVersion
1070
     0
  0
DICTIONARYVAR
  5
2E3
102
{ACAD_REACTORS
330
2E0
102
}
330
2E0
100
DictionaryVariables
280
     0
  1
1:1
  0
DICTIONARYVAR
  5
2E4
102
{ACAD_REACTORS
330
2E0
102
}
330
2E0
100
DictionaryVariables
280
     0
  1
2
  0
DICTIONARYVAR
  5
2E5
102
{ACAD_REACTORS
330
2E0
102
}
330
2E0
100
DictionaryVariables
280
     0
  1
1
  0
DICTIONARY
  5
308
330
3D
100
AcDbDictionary
280
     1
281
     1
  3
ACAD_XREC_ROUNDTRIP
360
309
  0
DICTIONARY
  5
306
330
3C
100
AcDbDictionary
280
     1
281
     1
  3
ACAD_XREC_ROUNDTRIP
360
307
  0
DICTIONARY
  5
30A
330
3E
100
AcDbDictionary
280
     1
281
     1
  3
ACAD_XREC_ROUNDTRIP
360
30B
  0
DICTIONARY
  5
2EE
330
2F
100
AcDbDictionary
280
     1
281
     1
  3
ACAD_XREC_ROUNDTRIP
360
2EF
  0
DICTIONARY
  5
2F2
330
31
100
AcDbDictionary
280
     1
281
     1
  3
ACAD_XREC_ROUNDTRIP
360
2F3
  0
DICTIONARY
  5
2F0
330
30
100
AcDbDictionary
280
     1
281
     1
  3
ACAD_XREC_ROUNDTRIP
360
2F1
  0
DICTIONARY
  5
2F4
330
32
100
AcDbDictionary
280
     1
281
     1
  3
ACAD_XREC_ROUNDTRIP
360
2F5
  0
DICTIONARY
  5
2FC
330
36
100
AcDbDictionary
280
     1
281
     1
  3
ACAD_XREC_ROUNDTRIP
360
2FD
  0
DICTIONARY
  5
304
330
3A
100
AcDbDictionary
280
     1
281
     1
  3
ACAD_XREC_ROUNDTRIP
360
305
  0
DICTIONARY
  5
2F8
330
34
100
AcDbDictionary
280
     1
281
     1
  3
ACAD_XREC_ROUNDTRIP
360
2F9
  0
DICTIONARY
  5
2FA
330
35
100
AcDbDictionary
280
     1
281
     1
  3
ACAD_XREC_ROUNDTRIP
360
2FB
  0
DICTIONARY
  5
302
330
39
100
AcDbDictionary
280
     1
281
     1
  3
ACAD_XREC_ROUNDTRIP
360
303
  0
DICTIONARY
  5
2E6
330
2B
100
AcDbDictionary
280
     1
281
     1
  3
ACAD_XREC_ROUNDTRIP
360
2E7
  0
DICTIONARY
  5
2E8
330
2C
100
AcDbDictionary
280
     1
281
     1
  3
ACAD_XREC_ROUNDTRIP
360
2E9
  0
DICTIONARY
  5
2EA
330
2D
100
AcDbDictionary
280
     1
281
     1
  3
ACAD_XREC_ROUNDTRIP
360
2EB
  0
DICTIONARY
  5
2EC
330
2E
100
AcDbDictionary
280
     1
281
     1
  3
ACAD_XREC_ROUNDTRIP
360
2ED
  0
DICTIONARY
  5
300
330
38
100
AcDbDictionary
280
     1
281
     1
  3
ACAD_XREC_ROUNDTRIP
360
301
  0
DICTIONARY
  5
2F6
330
33
100
AcDbDictionary
280
     1
281
     1
  3
ACAD_XREC_ROUNDTRIP
360
2F7
  0
DICTIONARY
  5
2FE
330
37
100
AcDbDictionary
280
     1
281
     1
  3
ACAD_XREC_ROUNDTRIP
360
2FF
  0
XRECORD
  5
309
102
{ACAD_REACTORS
330
308
102
}
330
308
100
AcDbXrecord
280
     1
102
MATERIAL
148
0.0
149
0.0
149
0.0
 93
        0
 94
      127
282
     0
 72
     1
 77
     1
171
     1
175
     1
179
     1
273
     0
  0
XRECORD
  5
307
102
{ACAD_REACTORS
330
306
102
}
330
306
100
AcDbXrecord
280
     1
102
MATERIAL
148
0.0
149
0.0
149
0.0
 93
        0
 94
      127
282
     0
 72
     1
 77
     1
171
     1
175
     1
179
     1
273
     0
  0
XRECORD
  5
30B
102
{ACAD_REACTORS
330
30A
102
}
330
30A
100
AcDbXrecord
280
     1
102
MATERIAL
148
0.0
149
0.0
149
0.0
 93
        0
 94
      127
282
     0
 72
     1
 77
     1
171
     1
175
     1
179
     1
273
     0
  0
XRECORD
  5
2EF
102
{ACAD_REACTORS
330
2EE
102
}
330
2EE
100
AcDbXrecord
280
     1
102
RTVSPropertyOp0
 70
     1
102
RTVSPropertyOp1
 70
     1
102
RTVSPropertyOp2
 70
     1
102
RTVSPropertyOp3
 70
     1
102
RTVSPropertyOp4
 70
     1
102
RTVSPropertyOp5
 70
     1
102
RTVSPropertyOp6
 70
     1
102
RTVSPropertyOp7
 70
     1
102
RTVSPropertyOp8
 70
     1
102
RTVSPropertyOp9
 70
     1
102
RTVSPropertyOp10
 70
     1
102
RTVSPropertyOp11
 70
     1
102
RTVSPropertyOp12
 70
     1
102
RTVSPropertyOp13
 70
     1
102
RTVSPropertyOp14
 70
     1
102
RTVSPropertyOp15
 70
     1
102
RTVSPropertyOp16
 70
     1
102
RTVSPropertyOp17
 70
     1
102
RTVSPropertyOp18
 70
     1
102
RTVSPropertyOp19
 70
     1
102
RTVSPropertyOp20
 70
     1
102
RTVSPropertyOp21
 70
     1
102
RTVSPropertyOp22
 70
     1
102
RTVSPropertyOp23
 70
     1
102
RTVSPropertyOp24
 70
     1
102
RTVSPropertyOp25
 70
     1
102
RTVSPropertyOp26
 70
     1
102
RTVSPropertyOp27
 70
     1
  0
XRECORD
  5
2F3
102
{ACAD_REACTORS
330
2F2
102
}
330
2F2
100
AcDbXrecord
280
     1
102
RTVSPropertyOp0
 70
     1
102
RTVSPropertyOp1
 70
     1
102
RTVSPropertyOp2
 70
     1
102
RTVSPropertyOp3
 70
     1
102
RTVSPropertyOp4
 70
     1
102
RTVSPropertyOp5
 70
     1
102
RTVSPropertyOp6
 70
     1
102
RTVSPropertyOp7
 70
     1
102
RTVSPropertyOp8
 70
     1
102
RTVSPropertyOp9
 70
     1
102
RTVSPropertyOp10
 70
     1
102
RTVSPropertyOp11
 70
     1
102
RTVSPropertyOp12
 70
     1
102
RTVSPropertyOp13
 70
     1
102
RTVSPropertyOp14
 70
     1
102
RTVSPropertyOp15
 70
     1
102
RTVSPropertyOp16
 70
     1
102
RTVSPropertyOp17
 70
     1
102
RTVSPropertyOp18
 70
     1
102
RTVSPropertyOp19
 70
     1
102
RTVSPropertyOp20
 70
     1
102
RTVSPropertyOp21
 70
     1
102
RTVSPropertyOp22
 70
     1
102
RTVSPropertyOp23
 70
     1
102
RTVSPropertyOp24
 70
     1
102
RTVSPropertyOp25
 70
     1
102
RTVSPropertyOp26
 70
     1
102
RTVSPropertyOp27
 70
     1
  0
XRECORD
  5
2F1
102
{ACAD_REACTORS
330
2F0
102
}
330
2F0
100
AcDbXrecord
280
     1
102
RTVSPropertyOp0
 70
     1
102
RTVSPropertyOp1
 70
     1
102
RTVSPropertyOp2
 70
     1
102
RTVSPropertyOp3
 70
     1
102
RTVSPropertyOp4
 70
     1
102
RTVSPropertyOp5
 70
     1
102
RTVSPropertyOp6
 70
     1
102
RTVSPropertyOp7
 70
     1
102
RTVSPropertyOp8
 70
     1
102
RTVSPropertyOp9
 70
     1
102
RTVSPropertyOp10
 70
     1
102
RTVSPropertyOp11
 70
     1
102
RTVSPropertyOp12
 70
     1
102
RTVSPropertyOp13
 70
     1
102
RTVSPropertyOp14
 70
     1
102
RTVSPropertyOp15
 70
     1
102
RTVSPropertyOp16
 70
     1
102
RTVSPropertyOp17
 70
     1
102
RTVSPropertyOp18
 70
     1
102
RTVSPropertyOp19
 70
     1
102
RTVSPropertyOp20
 70
     1
102
RTVSPropertyOp21
 70
     1
102
RTVSPropertyOp22
 70
     1
102
RTVSPropertyOp23
 70
     1
102
RTVSPropertyOp24
 70
     1
102
RTVSPropertyOp25
 70
     1
102
RTVSPropertyOp26
 70
     1
102
RTVSPropertyOp27
 70
     1
  0
XRECORD
  5
2F5
102
{ACAD_REACTORS
330
2F4
102
}
330
2F4
100
AcDbXrecord
280
     1
102
RTVSPropertyOp0
 70
     1
102
RTVSPropertyOp1
 70
     1
102
RTVSPropertyOp2
 70
     1
102
RTVSPropertyOp3
 70
     1
102
RTVSPropertyOp4
 70
     1
102
RTVSPropertyOp5
 70
     1
102
RTVSPropertyOp6
 70
     1
102
RTVSPropertyOp7
 70
     1
102
RTVSPropertyOp8
 70
     1
102
RTVSPropertyOp9
 70
     1
102
RTVSPropertyOp10
 70
     1
102
RTVSPropertyOp11
 70
     1
102
RTVSPropertyOp12
 70
     1
102
RTVSPropertyOp13
 70
     1
102
RTVSPropertyOp14
 70
     1
102
RTVSPropertyOp15
 70
     1
102
RTVSPropertyOp16
 70
     1
102
RTVSPropertyOp17
 70
     1
102
RTVSPropertyOp18
 70
     1
102
RTVSPropertyOp19
 70
     1
102
RTVSPropertyOp20
 70
     1
102
RTVSPropertyOp21
 70
     1
102
RTVSPropertyOp22
 70
     1
102
RTVSPropertyOp23
 70
     1
102
RTVSPropertyOp24
 70
     1
102
RTVSPropertyOp25
 70
     1
102
RTVSPropertyOp26
 70
     1
102
RTVSPropertyOp27
 70
     1
  0
XRECORD
  5
2FD
102
{ACAD_REACTORS
330
2FC
102
}
330
2FC
100
AcDbXrecord
280
     1
102
RTVSPropertyOp0
 70
     1
102
RTVSPropertyOp1
 70
     1
102
RTVSPropertyOp2
 70
     1
102
RTVSPropertyOp3
 70
     1
102
RTVSPropertyOp4
 70
     1
102
RTVSPropertyOp5
 70
     1
102
RTVSPropertyOp6
 70
     1
102
RTVSPropertyOp7
 70
     1
102
RTVSPropertyOp8
 70
     1
102
RTVSPropertyOp9
 70
     1
102
RTVSPropertyOp10
 70
     1
102
RTVSPropertyOp11
 70
     1
102
RTVSPropertyOp12
 70
     1
102
RTVSPropertyOp13
 70
     1
102
RTVSPropertyOp14
 70
     1
102
RTVSPropertyOp15
 70
     1
102
RTVSPropertyOp16
 70
     1
102
RTVSPropertyOp17
 70
     1
102
RTVSPropertyOp18
 70
     1
102
RTVSPropertyOp19
 70
     1
102
RTVSPropertyOp20
 70
     1
102
RTVSPropertyOp21
 70
     1
102
RTVSPropertyOp22
 70
     1
102
RTVSPropertyOp23
 70
     1
102
RTVSPropertyOp24
 70
     1
102
RTVSPropertyOp25
 70
     1
102
RTVSPropertyOp26
 70
     1
102
RTVSPropertyOp27
 70
     1
  0
XRECORD
  5
305
102
{ACAD_REACTORS
330
304
102
}
330
304
100
AcDbXrecord
280
     1
102
RTVSPropertyOp0
 70
     1
102
RTVSPropertyOp1
 70
     1
102
RTVSPropertyOp2
 70
     1
102
RTVSPropertyOp3
 70
     1
102
RTVSPropertyOp4
 70
     1
102
RTVSPropertyOp5
 70
     1
102
RTVSPropertyOp6
 70
     1
102
RTVSPropertyOp7
 70
     1
102
RTVSPropertyOp8
 70
     1
102
RTVSPropertyOp9
 70
     1
102
RTVSPropertyOp10
 70
     1
102
RTVSPropertyOp11
 70
     1
102
RTVSPropertyOp12
 70
     1
102
RTVSPropertyOp13
 70
     1
102
RTVSPropertyOp14
 70
     1
102
RTVSPropertyOp15
 70
     1
102
RTVSPropertyOp16
 70
     1
102
RTVSPropertyOp17
 70
     1
102
RTVSPropertyOp18
 70
     1
102
RTVSPropertyOp19
 70
     1
102
RTVSPropertyOp20
 70
     1
102
RTVSPropertyOp21
 70
     1
102
RTVSPropertyOp22
 70
     1
102
RTVSPropertyOp23
 70
     1
102
RTVSPropertyOp24
 70
     1
102
RTVSPropertyOp25
 70
     1
102
RTVSPropertyOp26
 70
     1
102
RTVSPropertyOp27
 70
     1
  0
XRECORD
  5
2F9
102
{ACAD_REACTORS
330
2F8
102
}
330
2F8
100
AcDbXrecord
280
     1
102
RTVSPropertyOp0
 70
     1
102
RTVSPropertyOp1
 70
     1
102
RTVSPropertyOp2
 70
     1
102
RTVSPropertyOp3
 70
     1
102
RTVSPropertyOp4
 70
     1
102
RTVSPropertyOp5
 70
     1
102
RTVSPropertyOp6
 70
     1
102
RTVSPropertyOp7
 70
     1
102
RTVSPropertyOp8
 70
     1
102
RTVSPropertyOp9
 70
     1
102
RTVSPropertyOp10
 70
     1
102
RTVSPropertyOp11
 70
     1
102
RTVSPropertyOp12
 70
     1
102
RTVSPropertyOp13
 70
     1
102
RTVSPropertyOp14
 70
     1
102
RTVSPropertyOp15
 70
     1
102
RTVSPropertyOp16
 70
     1
102
RTVSPropertyOp17
 70
     1
102
RTVSPropertyOp18
 70
     1
102
RTVSPropertyOp19
 70
     1
102
RTVSPropertyOp20
 70
     1
102
RTVSPropertyOp21
 70
     1
102
RTVSPropertyOp22
 70
     1
102
RTVSPropertyOp23
 70
     1
102
RTVSPropertyOp24
 70
     1
102
RTVSPropertyOp25
 70
     1
102
RTVSPropertyOp26
 70
     1
102
RTVSPropertyOp27
 70
     1
  0
XRECORD
  5
2FB
102
{ACAD_REACTORS
330
2FA
102
}
330
2FA
100
AcDbXrecord
280
     1
102
RTVSPropertyOp0
 70
     1
102
RTVSPropertyOp1
 70
     1
102
RTVSPropertyOp2
 70
     1
102
RTVSPropertyOp3
 70
     1
102
RTVSPropertyOp4
 70
     1
102
RTVSPropertyOp5
 70
     1
102
RTVSPropertyOp6
 70
     1
102
RTVSPropertyOp7
 70
     1
102
RTVSPropertyOp8
 70
     1
102
RTVSPropertyOp9
 70
     1
102
RTVSPropertyOp10
 70
     1
102
RTVSPropertyOp11
 70
     1
102
RTVSPropertyOp12
 70
     1
102
RTVSPropertyOp13
 70
     1
102
RTVSPropertyOp14
 70
     1
102
RTVSPropertyOp15
 70
     1
102
RTVSPropertyOp16
 70
     1
102
RTVSPropertyOp17
 70
     1
102
RTVSPropertyOp18
 70
     1
102
RTVSPropertyOp19
 70
     1
102
RTVSPropertyOp20
 70
     1
102
RTVSPropertyOp21
 70
     1
102
RTVSPropertyOp22
 70
     1
102
RTVSPropertyOp23
 70
     1
102
RTVSPropertyOp24
 70
     1
102
RTVSPropertyOp25
 70
     1
102
RTVSPropertyOp26
 70
     1
102
RTVSPropertyOp27
 70
     1
  0
XRECORD
  5
303
102
{ACAD_REACTORS
330
302
102
}
330
302
100
AcDbXrecord
280
     1
102
RTVSPropertyOp0
 70
     1
102
RTVSPropertyOp1
 70
     1
102
RTVSPropertyOp2
 70
     1
102
RTVSPropertyOp3
 70
     1
102
RTVSPropertyOp4
 70
     1
102
RTVSPropertyOp5
 70
     1
102
RTVSPropertyOp6
 70
     1
102
RTVSPropertyOp7
 70
     1
102
RTVSPropertyOp8
 70
     1
102
RTVSPropertyOp9
 70
     1
102
RTVSPropertyOp10
 70
     1
102
RTVSPropertyOp11
 70
     1
102
RTVSPropertyOp12
 70
     1
102
RTVSPropertyOp13
 70
     1
102
RTVSPropertyOp14
 70
     1
102
RTVSPropertyOp15
 70
     1
102
RTVSPropertyOp16
 70
     1
102
RTVSPropertyOp17
 70
     1
102
RTVSPropertyOp18
 70
     1
102
RTVSPropertyOp19
 70
     1
102
RTVSPropertyOp20
 70
     1
102
RTVSPropertyOp21
 70
     1
102
RTVSPropertyOp22
 70
     1
102
RTVSPropertyOp23
 70
     1
102
RTVSPropertyOp24
 70
     1
102
RTVSPropertyOp25
 70
     1
102
RTVSPropertyOp26
 70
     1
102
RTVSPropertyOp27
 70
     1
  0
XRECORD
  5
2E7
102
{ACAD_REACTORS
330
2E6
102
}
330
2E6
100
AcDbXrecord
280
     1
102
RTVSPropertyOp0
 70
     1
102
RTVSPropertyOp1
 70
     1
102
RTVSPropertyOp2
 70
     1
102
RTVSPropertyOp3
 70
     1
102
RTVSPropertyOp4
 70
     1
102
RTVSPropertyOp5
 70
     1
102
RTVSPropertyOp6
 70
     1
102
RTVSPropertyOp7
 70
     1
102
RTVSPropertyOp8
 70
     1
102
RTVSPropertyOp9
 70
     1
102
RTVSPropertyOp10
 70
     1
102
RTVSPropertyOp11
 70
     1
102
RTVSPropertyOp12
 70
     1
102
RTVSPropertyOp13
 70
     1
102
RTVSPropertyOp14
 70
     1
102
RTVSPropertyOp15
 70
     1
102
RTVSPropertyOp16
 70
     1
102
RTVSPropertyOp17
 70
     1
102
RTVSPropertyOp18
 70
     1
102
RTVSPropertyOp19
 70
     1
102
RTVSPropertyOp20
 70
     1
102
RTVSPropertyOp21
 70
     1
102
RTVSPropertyOp22
 70
     1
102
RTVSPropertyOp23
 70
     1
102
RTVSPropertyOp24
 70
     1
102
RTVSPropertyOp25
 70
     1
102
RTVSPropertyOp26
 70
     1
102
RTVSPropertyOp27
 70
     1
  0
XRECORD
  5
2E9
102
{ACAD_REACTORS
330
2E8
102
}
330
2E8
100
AcDbXrecord
280
     1
102
RTVSPropertyOp0
 70
     1
102
RTVSPropertyOp1
 70
     1
102
RTVSPropertyOp2
 70
     1
102
RTVSPropertyOp3
 70
     1
102
RTVSPropertyOp4
 70
     1
102
RTVSPropertyOp5
 70
     1
102
RTVSPropertyOp6
 70
     1
102
RTVSPropertyOp7
 70
     1
102
RTVSPropertyOp8
 70
     1
102
RTVSPropertyOp9
 70
     1
102
RTVSPropertyOp10
 70
     1
102
RTVSPropertyOp11
 70
     1
102
RTVSPropertyOp12
 70
     1
102
RTVSPropertyOp13
 70
     1
102
RTVSPropertyOp14
 70
     1
102
RTVSPropertyOp15
 70
     1
102
RTVSPropertyOp16
 70
     1
102
RTVSPropertyOp17
 70
     1
102
RTVSPropertyOp18
 70
     1
102
RTVSPropertyOp19
 70
     1
102
RTVSPropertyOp20
 70
     1
102
RTVSPropertyOp21
 70
     1
102
RTVSPropertyOp22
 70
     1
102
RTVSPropertyOp23
 70
     1
102
RTVSPropertyOp24
 70
     1
102
RTVSPropertyOp25
 70
     1
102
RTVSPropertyOp26
 70
     1
102
RTVSPropertyOp27
 70
     1
  0
XRECORD
  5
2EB
102
{ACAD_REACTORS
330
2EA
102
}
330
2EA
100
AcDbXrecord
280
     1
102
RTVSPropertyOp0
 70
     1
102
RTVSPropertyOp1
 70
     1
102
RTVSPropertyOp2
 70
     1
102
RTVSPropertyOp3
 70
     1
102
RTVSPropertyOp4
 70
     1
102
RTVSPropertyOp5
 70
     1
102
RTVSPropertyOp6
 70
     1
102
RTVSPropertyOp7
 70
     1
102
RTVSPropertyOp8
 70
     1
102
RTVSPropertyOp9
 70
     1
102
RTVSPropertyOp10
 70
     1
102
RTVSPropertyOp11
 70
     1
102
RTVSPropertyOp12
 70
     1
102
RTVSPropertyOp13
 70
     1
102
RTVSPropertyOp14
 70
     1
102
RTVSPropertyOp15
 70
     1
102
RTVSPropertyOp16
 70
     1
102
RTVSPropertyOp17
 70
     1
102
RTVSPropertyOp18
 70
     1
102
RTVSPropertyOp19
 70
     1
102
RTVSPropertyOp20
 70
     1
102
RTVSPropertyOp21
 70
     1
102
RTVSPropertyOp22
 70
     1
102
RTVSPropertyOp23
 70
     1
102
RTVSPropertyOp24
 70
     1
102
RTVSPropertyOp25
 70
     1
102
RTVSPropertyOp26
 70
     1
102
RTVSPropertyOp27
 70
     1
  0
XRECORD
  5
2ED
102
{ACAD_REACTORS
330
2EC
102
}
330
2EC
100
AcDbXrecord
280
     1
102
RTVSPropertyOp0
 70
     1
102
RTVSPropertyOp1
 70
     1
102
RTVSPropertyOp2
 70
     1
102
RTVSPropertyOp3
 70
     1
102
RTVSPropertyOp4
 70
     1
102
RTVSPropertyOp5
 70
     1
102
RTVSPropertyOp6
 70
     1
102
RTVSPropertyOp7
 70
     1
102
RTVSPropertyOp8
 70
     1
102
RTVSPropertyOp9
 70
     1
102
RTVSPropertyOp10
 70
     1
102
RTVSPropertyOp11
 70
     1
102
RTVSPropertyOp12
 70
     1
102
RTVSPropertyOp13
 70
     1
102
RTVSPropertyOp14
 70
     1
102
RTVSPropertyOp15
 70
     1
102
RTVSPropertyOp16
 70
     1
102
RTVSPropertyOp17
 70
     1
102
RTVSPropertyOp18
 70
     1
102
RTVSPropertyOp19
 70
     1
102
RTVSPropertyOp20
 70
     1
102
RTVSPropertyOp21
 70
     1
102
RTVSPropertyOp22
 70
     1
102
RTVSPropertyOp23
 70
     1
102
RTVSPropertyOp24
 70
     1
102
RTVSPropertyOp25
 70
     1
102
RTVSPropertyOp26
 70
     1
102
RTVSPropertyOp27
 70
     1
  0
XRECORD
  5
301
102
{ACAD_REACTORS
330
300
102
}
330
300
100
AcDbXrecord
280
     1
102
RTVSPropertyOp0
 70
     1
102
RTVSPropertyOp1
 70
     1
102
RTVSPropertyOp2
 70
     1
102
RTVSPropertyOp3
 70
     1
102
RTVSPropertyOp4
 70
     1
102
RTVSPropertyOp5
 70
     1
102
RTVSPropertyOp6
 70
     1
102
RTVSPropertyOp7
 70
     1
102
RTVSPropertyOp8
 70
     1
102
RTVSPropertyOp9
 70
     1
102
RTVSPropertyOp10
 70
     1
102
RTVSPropertyOp11
 70
     1
102
RTVSPropertyOp12
 70
     1
102
RTVSPropertyOp13
 70
     1
102
RTVSPropertyOp14
 70
     1
102
RTVSPropertyOp15
 70
     1
102
RTVSPropertyOp16
 70
     1
102
RTVSPropertyOp17
 70
     1
102
RTVSPropertyOp18
 70
     1
102
RTVSPropertyOp19
 70
     1
102
RTVSPropertyOp20
 70
     1
102
RTVSPropertyOp21
 70
     1
102
RTVSPropertyOp22
 70
     1
102
RTVSPropertyOp23
 70
     1
102
RTVSPropertyOp24
 70
     1
102
RTVSPropertyOp25
 70
     1
102
RTVSPropertyOp26
 70
     1
102
RTVSPropertyOp27
 70
     1
  0
XRECORD
  5
2F7
102
{ACAD_REACTORS
330
2F6
102
}
330
2F6
100
AcDbXrecord
280
     1
102
RTVSPropertyOp0
 70
     1
102
RTVSPropertyOp1
 70
     1
102
RTVSPropertyOp2
 70
     1
102
RTVSPropertyOp3
 70
     1
102
RTVSPropertyOp4
 70
     1
102
RTVSPropertyOp5
 70
     1
102
RTVSPropertyOp6
 70
     1
102
RTVSPropertyOp7
 70
     1
102
RTVSPropertyOp8
 70
     1
102
RTVSPropertyOp9
 70
     1
102
RTVSPropertyOp10
 70
     1
102
RTVSPropertyOp11
 70
     1
102
RTVSPropertyOp12
 70
     1
102
RTVSPropertyOp13
 70
     1
102
RTVSPropertyOp14
 70
     1
102
RTVSPropertyOp15
 70
     1
102
RTVSPropertyOp16
 70
     1
102
RTVSPropertyOp17
 70
     1
102
RTVSPropertyOp18
 70
     1
102
RTVSPropertyOp19
 70
     1
102
RTVSPropertyOp20
 70
     1
102
RTVSPropertyOp21
 70
     1
102
RTVSPropertyOp22
 70
     1
102
RTVSPropertyOp23
 70
     1
102
RTVSPropertyOp24
 70
     1
102
RTVSPropertyOp25
 70
     1
102
RTVSPropertyOp26
 70
     1
102
RTVSPropertyOp27
 70
     1
  0
XRECORD
  5
2FF
102
{ACAD_REACTORS
330
2FE
102
}
330
2FE
100
AcDbXrecord
280
     1
102
RTVSPropertyOp0
 70
     1
102
RTVSPropertyOp1
 70
     1
102
RTVSPropertyOp2
 70
     1
102
RTVSPropertyOp3
 70
     1
102
RTVSPropertyOp4
 70
     1
102
RTVSPropertyOp5
 70
     1
102
RTVSPropertyOp6
 70
     1
102
RTVSPropertyOp7
 70
     1
102
RTVSPropertyOp8
 70
     1
102
RTVSPropertyOp9
 70
     1
102
RTVSPropertyOp10
 70
     1
102
RTVSPropertyOp11
 70
     1
102
RTVSPropertyOp12
 70
     1
102
RTVSPropertyOp13
 70
     1
102
RTVSPropertyOp14
 70
     1
102
RTVSPropertyOp15
 70
     1
102
RTVSPropertyOp16
 70
     1
102
RTVSPropertyOp17
 70
     1
102
RTVSPropertyOp18
 70
     1
102
RTVSPropertyOp19
 70
     1
102
RTVSPropertyOp20
 70
     1
102
RTVSPropertyOp21
 70
     1
102
RTVSPropertyOp22
 70
     1
102
RTVSPropertyOp23
 70
     1
102
RTVSPropertyOp24
 70
     1
102
RTVSPropertyOp25
 70
     1
102
RTVSPropertyOp26
 70
     1
102
RTVSPropertyOp27
 70
     1
  0
ENDSEC
  0
EOF
